Warning! Do NOT Download Without a VPN!
Your IP Address is .   Location is
Your Internet Provider and Government can track your download activities! Hide your IP ADDRESS with a VPN!
We strongly recommend using a VPN service to anonymize your torrent downloads. It's FREE!
START YOUR FREE TRIAL NOW!

Torrent Details

Photo Not Available
Sherlock Holmes: A Game of Shadows
Sherlock Holmes A Game of Shadows (2011) [2160p] [HDR] (bluray) [WMAN-LorD]
Size7.2 GB in 2 files
ReleasesAdded on 08/29/20 at 5:42pm into the Movies category by Unknown.
MPAA Rating[PG-13] - Parents Strongly Cautioned
Status0 seeds & 0 peers.
Hash6db40d46b54863454b714892d1b5482bc8a491a1
GenreAction, Adventure, Crime, Mystery, Thriller
PeopleDirector: Guy Ritchie
Writers: Michele Mulroney, Kieran Mulroney, Arthur Conan Doyle (characters)
Actors: Robert Downey Jr., Jude Law, Noomi Rapace, Rachel McAdams
Made inThis movie was made in USA, UK and the original languages of this movie are English, French, Italian, German, Romany.
Rating
  • YourBT Visitors

  • Critics

  • IMDB (404834 votes)

  • Metacritic Score

Status This torrent has been verified.
*

Torrent Description

Release info:

>Encoded by: [WMAN-LorD]

>HDR working!

>Source: Blu-ray Original 4k HDR









[/url]















General

Unique ID                   : 126870391918512115376846470672043363287 (0x5F7259436EED8B28079570A5F4AE4BD7)

Complete name               : Sherlock.Holmes.A.Game.of.Shadows.2011.2160p.UHD.HDR.BluRay.x265.10bit.DD5.1.[WMAN-LorD].mkv

Format                      : Matroska

Format version              : Version 4

File size                   : 7.25 GiB

Duration                    : 2 h 8 min

Overall bit rate            : 8 058 kb/s

Movie name                  : Sherlock Holmes: A Game of Shadows (2011) [WMAN-LorD]

Encoded date                : UTC 2020-08-29 12:33:33

Writing application         : mkvmerge v49.0.0 ('Sick Of Losing Soulmates') 64-bit

Writing library             : libebml v1.4.0 + libmatroska v1.6.1

Cover                       : Yes

Attachments                 : cover.jpg

IMDB                        : tt1515091

TMDB                        : movie/58574



Video

ID                          : 1

Format                      : HEVC

Format/Info                 : High Efficiency Video Coding

Format profile              : Main [email protected]@Main

HDR format                  : SMPTE ST 2086, HDR10 compatible

Codec ID                    : V_MPEGH/ISO/HEVC

Duration                    : 2 h 8 min

Bit rate                    : 7 044 kb/s

Width                       : 3 840 pixels

Height                      : 2 160 pixels

Display aspect ratio        : 16:9

Frame rate mode             : Constant

Frame rate                  : 23.976 (24000/1001) FPS

Color space                 : YUV

Chroma subsampling          : 4:2:0 (Type 2)

Bit depth                   : 10 bits

Bits/(Pixel*Frame)          : 0.035

Stream size                 : 6.33 GiB (87%)

Title                       : [WMAN-LorD]

Language                    : English

Default                     : Yes

Forced                      : No

Color range                 : Limited

Color primaries             : BT.2020

Transfer characteristics    : PQ

Matrix coefficients         : BT.2020 non-constant

Mastering display color pri : Display P3

Mastering display luminance : min: 0.0050 cd/m2, max: 4000 cd/m2

Maximum Content Light Level : 343 cd/m2

Maximum Frame-Average Light : 106 cd/m2



Audio

ID                          : 2

Format                      : AC-3

Format/Info                 : Audio Coding 3

Commercial name             : Dolby Digital

Codec ID                    : A_AC3

Duration                    : 2 h 8 min

Bit rate mode               : Constant

Bit rate                    : 640 kb/s

Channel(s)                  : 6 channels

Channel layout              : L R C LFE Ls Rs

Sampling rate               : 48.0 kHz

Frame rate                  : 31.250 FPS (1536 SPF)

Compression mode            : Lossy

Stream size                 : 589 MiB (8%)

Title                       : Compatibility Track / Dolby Digital Audio / 5.1 / 48 kHz / 640 kbps

Language                    : English

Service kind                : Complete Main

Default                     : Yes

Forced                      : No



Text #1

ID                          : 3

Format                      : PGS

Muxing mode                 : zlib

Codec ID                    : S_HDMV/PGS

Codec ID/Info               : Picture based subtitle format used on BDs/HD-DVDs

Duration                    : 2 h 8 min

Bit rate                    : 23.8 kb/s

Count of elements           : 2450

Stream size                 : 21.8 MiB (0%)

Title                       : Portuguese Brazil

Language                    : Portuguese

Default                     : Yes

Forced                      : No



Text #2

ID                          : 4

Format                      : PGS

Muxing mode                 : zlib

Codec ID                    : S_HDMV/PGS

Codec ID/Info               : Picture based subtitle format used on BDs/HD-DVDs

Duration                    : 1 h 59 min

Bit rate                    : 30.7 kb/s

Count of elements           : 2900

Stream size                 : 26.3 MiB (0%)

Title                       : English (SDH)

Language                    : English

Default                     : No

Forced                      : No



Text #3

ID                          : 5

Format                      : PGS

Muxing mode                 : zlib

Codec ID                    : S_HDMV/PGS

Codec ID/Info               : Picture based subtitle format used on BDs/HD-DVDs

Duration                    : 2 h 0 min

Bit rate                    : 13.1 kb/s

Count of elements           : 2684

Stream size                 : 11.2 MiB (0%)

Title                       : Arabic

Language                    : Arabic

Default                     : No

Forced                      : No



Text #4

ID                          : 6

Format                      : PGS

Muxing mode                 : zlib

Codec ID                    : S_HDMV/PGS

Codec ID/Info               : Picture based subtitle format used on BDs/HD-DVDs

Duration                    : 2 h 8 min

Bit rate                    : 22.9 kb/s

Count of elements           : 2468

Stream size                 : 21.0 MiB (0%)

Title                       : Bulgarian

Language                    : Bulgarian

Default                     : No

Forced                      : No



Text #5

ID                          : 7

Format                      : PGS

Muxing mode                 : zlib

Codec ID                    : S_HDMV/PGS

Codec ID/Info               : Picture based subtitle format used on BDs/HD-DVDs

Duration                    : 2 h 8 min

Bit rate                    : 20.1 kb/s

Count of elements           : 2408

Stream size                 : 18.4 MiB (0%)

Title                       : Chinese (Cantonese)

Language                    : Chinese

Default                     : No

Forced                      : No



Text #6

ID                          : 8

Format                      : PGS

Muxing mode                 : zlib

Codec ID                    : S_HDMV/PGS

Codec ID/Info               : Picture based subtitle format used on BDs/HD-DVDs

Duration                    : 2 h 8 min

Bit rate                    : 22.7 kb/s

Count of elements           : 2406

Stream size                 : 20.8 MiB (0%)

Title                       : Chinese (Mandarin Simplified)

Language                    : Chinese

Default                     : No

Forced                      : No



Text #7

ID                          : 9

Format                      : PGS

Muxing mode                 : zlib

Codec ID                    : S_HDMV/PGS

Codec ID/Info               : Picture based subtitle format used on BDs/HD-DVDs

Duration                    : 2 h 8 min

Bit rate                    : 20.6 kb/s

Count of elements           : 2436

Stream size                 : 18.9 MiB (0%)

Title                       : Chinese (Mandarin Traditional)

Language                    : Chinese

Default                     : No

Forced                      : No



Text #8

ID                          : 10

Format                      : PGS

Muxing mode                 : zlib

Codec ID                    : S_HDMV/PGS

Codec ID/Info               : Picture based subtitle format used on BDs/HD-DVDs

Duration                    : 2 h 8 min

Bit rate                    : 21.0 kb/s

Count of elements           : 1902

Stream size                 : 19.3 MiB (0%)

Title                       : Croatian

Language                    : Croatian

Default                     : No

Forced                      : No



Text #9

ID                          : 11

Format                      : PGS

Muxing mode                 : zlib

Codec ID                    : S_HDMV/PGS

Codec ID/Info               : Picture based subtitle format used on BDs/HD-DVDs

Duration                    : 2 h 8 min

Bit rate                    : 21.7 kb/s

Count of elements           : 2390

Stream size                 : 19.9 MiB (0%)

Title                       : Czech

Language                    : Czech

Default                     : No

Forced                      : No



Text #10

ID                          : 12

Format                      : PGS

Muxing mode                 : zlib

Codec ID                    : S_HDMV/PGS

Codec ID/Info               : Picture based subtitle format used on BDs/HD-DVDs

Duration                    : 2 h 8 min

Bit rate                    : 22.9 kb/s

Count of elements           : 1922

Stream size                 : 21.0 MiB (0%)

Title                       : Danish

Language                    : Danish

Default                     : No

Forced                      : No



Text #11

ID                          : 13

Format                      : PGS

Muxing mode                 : zlib

Codec ID                    : S_HDMV/PGS

Codec ID/Info               : Picture based subtitle format used on BDs/HD-DVDs

Duration                    : 2 h 8 min

Bit rate                    : 21.5 kb/s

Count of elements           : 2090

Stream size                 : 19.7 MiB (0%)

Title                       : Dutch

Language                    : Dutch

Default                     : No

Forced                      : No



Text #12

ID                          : 14

Format                      : PGS

Muxing mode                 : zlib

Codec ID                    : S_HDMV/PGS

Codec ID/Info               : Picture based subtitle format used on BDs/HD-DVDs

Duration                    : 2 h 8 min

Bit rate                    : 18.7 kb/s

Count of elements           : 2470

Stream size                 : 17.1 MiB (0%)

Title                       : Estonian

Language                    : Estonian

Default                     : No

Forced                      : No



Text #13

ID                          : 15

Format                      : PGS

Muxing mode                 : zlib

Codec ID                    : S_HDMV/PGS

Codec ID/Info               : Picture based subtitle format used on BDs/HD-DVDs

Duration                    : 2 h 8 min

Bit rate                    : 20.7 kb/s

Count of elements           : 2048

Stream size                 : 18.9 MiB (0%)

Title                       : Finnish

Language                    : Finnish

Default                     : No

Forced                      : No



Text #14

ID                          : 16

Format                      : PGS

Muxing mode                 : zlib

Codec ID                    : S_HDMV/PGS

Codec ID/Info               : Picture based subtitle format used on BDs/HD-DVDs

Duration                    : 2 h 8 min

Bit rate                    : 23.6 kb/s

Count of elements           : 2342

Stream size                 : 21.7 MiB (0%)

Title                       : French

Language                    : French

Default                     : No

Forced                      : No



Text #15

ID                          : 17

Format                      : PGS

Muxing mode                 : zlib

Codec ID                    : S_HDMV/PGS

Codec ID/Info               : Picture based subtitle format used on BDs/HD-DVDs

Duration                    : 1 h 59 min

Bit rate                    : 36.5 kb/s

Count of elements           : 2996

Stream size                 : 31.3 MiB (0%)

Title                       : German (SDH)

Language                    : German

Default                     : No

Forced                      : No



Text #16

ID                          : 18

Format                      : PGS

Muxing mode                 : zlib

Codec ID                    : S_HDMV/PGS

Codec ID/Info               : Picture based subtitle format used on BDs/HD-DVDs

Duration                    : 2 h 8 min

Bit rate                    : 18.2 kb/s

Count of elements           : 2334

Stream size                 : 16.7 MiB (0%)

Title                       : Hebrew

Language                    : Hebrew

Default                     : No

Forced                      : No



Text #17

ID                          : 19

Format                      : PGS

Muxing mode                 : zlib

Codec ID                    : S_HDMV/PGS

Codec ID/Info               : Picture based subtitle format used on BDs/HD-DVDs

Duration                    : 2 h 8 min

Bit rate                    : 21.8 kb/s

Count of elements           : 2246

Stream size                 : 20.0 MiB (0%)

Title                       : Hungarian

Language                    : Hungarian

Default                     : No

Forced                      : No



Text #18

ID                          : 20

Format                      : PGS

Muxing mode                 : zlib

Codec ID                    : S_HDMV/PGS

Codec ID/Info               : Picture based subtitle format used on BDs/HD-DVDs

Duration                    : 2 h 8 min

Bit rate                    : 22.9 kb/s

Count of elements           : 2522

Stream size                 : 21.0 MiB (0%)

Title                       : Icelandic

Language                    : Icelandic

Default                     : No

Forced                      : No



Text #19

ID                          : 21

Format                      : PGS

Muxing mode                 : zlib

Codec ID                    : S_HDMV/PGS

Codec ID/Info               : Picture based subtitle format used on BDs/HD-DVDs

Duration                    : 2 h 8 min

Bit rate                    : 26.6 kb/s

Count of elements           : 2402

Stream size                 : 24.4 MiB (0%)

Title                       : Indonesian

Language                    : Indonesian

Default                     : No

Forced                      : No



Text #20

ID                          : 22

Format                      : PGS

Muxing mode                 : zlib

Codec ID                    : S_HDMV/PGS

Codec ID/Info               : Picture based subtitle format used on BDs/HD-DVDs

Duration                    : 2 h 8 min

Bit rate                    : 28.9 kb/s

Count of elements           : 2972

Stream size                 : 26.5 MiB (0%)

Title                       : Italian (SDH)

Language                    : Italian

Default                     : No

Forced                      : No



Text #21

ID                          : 23

Format                      : PGS

Muxing mode                 : zlib

Codec ID                    : S_HDMV/PGS

Codec ID/Info               : Picture based subtitle format used on BDs/HD-DVDs

Duration                    : 2 h 0 min

Bit rate                    : 19.2 kb/s

Count of elements           : 2500

Stream size                 : 16.5 MiB (0%)

Title                       : Japanese

Language                    : Japanese

Default                     : No

Forced                      : No



Text #22

ID                          : 24

Format                      : PGS

Muxing mode                 : zlib

Codec ID                    : S_HDMV/PGS

Codec ID/Info               : Picture based subtitle format used on BDs/HD-DVDs

Duration                    : 1 h 59 min

Bit rate                    : 16.2 kb/s

Count of elements           : 2384

Stream size                 : 13.9 MiB (0%)

Title                       : Korean

Language                    : Korean

Default                     : No

Forced                      : No



Text #23

ID                          : 25

Format                      : PGS

Muxing mode                 : zlib

Codec ID                    : S_HDMV/PGS

Codec ID/Info               : Picture based subtitle format used on BDs/HD-DVDs

Duration                    : 2 h 8 min

Bit rate                    : 17.8 kb/s

Count of elements           : 2494

Stream size                 : 16.3 MiB (0%)

Title                       : Latvian

Language                    : Latvian

Default                     : No

Forced                      : No



Text #24

ID                          : 26

Format                      : PGS

Muxing mode                 : zlib

Codec ID                    : S_HDMV/PGS

Codec ID/Info               : Picture based subtitle format used on BDs/HD-DVDs

Duration                    : 2 h 8 min

Bit rate                    : 23.8 kb/s

Count of elements           : 2544

Stream size                 : 21.8 MiB (0%)

Title                       : Lithuanian

Language                    : Lithuanian

Default                     : No

Forced                      : No



Text #25

ID                          : 27

Format                      : PGS

Muxing mode                 : zlib

Codec ID                    : S_HDMV/PGS

Codec ID/Info               : Picture based subtitle format used on BDs/HD-DVDs

Duration                    : 2 h 8 min

Bit rate                    : 22.0 kb/s

Count of elements           : 1938

Stream size                 : 20.1 MiB (0%)

Title                       : Norwegian

Language                    : Norwegian

Default                     : No

Forced                      : No



Text #26

ID                          : 28

Format                      : PGS

Muxing mode                 : zlib

Codec ID                    : S_HDMV/PGS

Codec ID/Info               : Picture based subtitle format used on BDs/HD-DVDs

Duration                    : 2 h 8 min

Bit rate                    : 20.3 kb/s

Count of elements           : 2340

Stream size                 : 18.6 MiB (0%)

Title                       : Polish

Language                    : Polish

Default                     : No

Forced                      : No



Text #27

ID                          : 29

Format                      : PGS

Muxing mode                 : zlib

Codec ID                    : S_HDMV/PGS

Codec ID/Info               : Picture based subtitle format used on BDs/HD-DVDs

Duration                    : 2 h 8 min

Bit rate                    : 23.7 kb/s

Count of elements           : 2420

Stream size                 : 21.7 MiB (0%)

Title                       : Portuguese (Iberian)

Language                    : Portuguese

Default                     : No

Forced                      : No



Text #28

ID                          : 30

Format                      : PGS

Muxing mode                 : zlib

Codec ID                    : S_HDMV/PGS

Codec ID/Info               : Picture based subtitle format used on BDs/HD-DVDs

Duration                    : 2 h 8 min

Bit rate                    : 23.0 kb/s

Count of elements           : 2364

Stream size                 : 21.1 MiB (0%)

Title                       : Romanian

Language                    : Romanian

Default                     : No

Forced                      : No



Text #29

ID                          : 31

Format                      : PGS

Muxing mode                 : zlib

Codec ID                    : S_HDMV/PGS

Codec ID/Info               : Picture based subtitle format used on BDs/HD-DVDs

Duration                    : 2 h 8 min

Bit rate                    : 19.2 kb/s

Count of elements           : 2522

Stream size                 : 17.6 MiB (0%)

Title                       : Russian

Language                    : Russian

Default                     : No

Forced                      : No



Text #30

ID                          : 32

Format                      : PGS

Muxing mode                 : zlib

Codec ID                    : S_HDMV/PGS

Codec ID/Info               : Picture based subtitle format used on BDs/HD-DVDs

Duration                    : 2 h 8 min

Bit rate                    : 21.4 kb/s

Count of elements           : 2384

Stream size                 : 19.6 MiB (0%)

Title                       : Serbian

Language                    : Serbian

Default                     : No

Forced                      : No



Text #31

ID                          : 33

Format                      : PGS

Muxing mode                 : zlib

Codec ID                    : S_HDMV/PGS

Codec ID/Info               : Picture based subtitle format used on BDs/HD-DVDs

Duration                    : 2 h 8 min

Bit rate                    : 19.2 kb/s

Count of elements           : 1770

Stream size                 : 17.6 MiB (0%)

Title                       : Slovenian

Language                    : Slovenian

Default                     : No

Forced                      : No



Text #32

ID                          : 34

Format                      : PGS

Muxing mode                 : zlib

Codec ID                    : S_HDMV/PGS

Codec ID/Info               : Picture based subtitle format used on BDs/HD-DVDs

Duration                    : 2 h 8 min

Bit rate                    : 23.2 kb/s

Count of elements           : 2502

Stream size                 : 21.2 MiB (0%)

Title                       : Spanish (Castilian)

Language                    : Spanish

Default                     : No

Forced                      : No



Text #33

ID                          : 35

Format                      : PGS

Muxing mode                 : zlib

Codec ID                    : S_HDMV/PGS

Codec ID/Info               : Picture based subtitle format used on BDs/HD-DVDs

Duration                    : 2 h 8 min

Bit rate                    : 25.2 kb/s

Count of elements           : 2558

Stream size                 : 23.1 MiB (0%)

Title                       : Spanish (Latin American)

Language                    : Spanish

Default                     : No

Forced                      : No



Text #34

ID                          : 36

Format                      : PGS

Muxing mode                 : zlib

Codec ID                    : S_HDMV/PGS

Codec ID/Info               : Picture based subtitle format used on BDs/HD-DVDs

Duration                    : 2 h 8 min

Bit rate                    : 22.3 kb/s

Count of elements           : 2004

Stream size                 : 20.5 MiB (0%)

Title                       : Swedish

Language                    : Swedish

Default                     : No

Forced                      : No



Text #35

ID                          : 37

Format                      : PGS

Muxing mode                 : zlib

Codec ID                    : S_HDMV/PGS

Codec ID/Info               : Picture based subtitle format used on BDs/HD-DVDs

Duration                    : 2 h 8 min

Bit rate                    : 22.4 kb/s

Count of elements           : 2402

Stream size                 : 20.6 MiB (0%)

Title                       : Thai

Language                    : Thai

Default                     : No

Forced                      : No



Text #36

ID                          : 38

Format                      : PGS

Muxing mode                 : zlib

Codec ID                    : S_HDMV/PGS

Codec ID/Info               : Picture based subtitle format used on BDs/HD-DVDs

Duration                    : 2 h 8 min

Bit rate                    : 23.1 kb/s

Count of elements           : 2472

Stream size                 : 21.2 MiB (0%)

Title                       : Turkish

Language                    : Turkish

Default                     : No

Forced                      : No



Menu

00:00:00.000                : en:Chapter 1

00:09:17.891                : en:Chapter 2

00:19:37.259                : en:Chapter 3

00:30:46.470                : en:Chapter 4

00:40:13.328                : en:Chapter 5

00:50:28.651                : en:Chapter 6

00:59:45.081                : en:Chapter 7

01:09:20.448                : en:Chapter 8

01:18:57.900                : en:Chapter 9

01:30:08.320                : en:Chapter 10

01:39:08.359                : en:Chapter 11

01:49:50.000                : en:Chapter 12

02:00:24.342                : en:Chapter 13

















Similar Torrents

TORRENT NAMESIZESEEDSPEERS
1.1 GB21771451
3.8 GB119182
1.2 GB962174
2 GB912182
2.4 GB847141
1.9 GB793164
797 MB79397
2.9 GB785669
1004 MB78568
586 MB73659
769 MB624186
253 MB54098
1.5 GB540167
1.6 GB53071
1.2 GB522508

Torrent Trackers

Files inside this torrent

FILENAMESIZE
icon Sherlock.Holmes.A.Game.of.Shadows.2011.2160p.UHD.HDR.BluRay.x265.10bit.DD5.1.[WMAN-LorD].mkv7.2 GB
icon [TGx]Downloaded from torrentgalaxy.to .txt585 B