Warning! Do NOT Download Without a VPN!
Your IP Address is .   Location is
Your Internet Provider and Government can track your download activities! Hide your IP ADDRESS with a VPN!
We strongly recommend using a VPN service to anonymize your torrent downloads. It's FREE!
START YOUR FREE TRIAL NOW!

Torrent Details

Photo Not Available
Sherlock Holmes
Sherlock Holmes (2009) [2160p] [HDR] (bluray) [WMAN-LorD]
Size6.4 GB in 2 files
ReleasesAdded on 08/30/20 at 9:52pm into the Movies category by Unknown.
MPAA RatingUnknown Rating: N/A
Status0 seeds & 0 peers.
Hash95b2e861c27ca1caa56674ccc18abde0fe51d5fc
GenreCrime, Drama, Mystery
PeopleDirector: N/A
Writer: N/A
Actors: Ronald Howard, Howard Marion-Crawford, Archie Duncan, Richard Larke
Made inThis movie was made in USA and the original language of this movie is English.
Rating
  • YourBT Visitors

  • Critics

  • IMDB (725 votes)

Status This torrent has been verified.
*

Torrent Description

Release info:

>Encoded by: [WMAN-LorD]

>HDR working!

>Source: Blu-ray Original 4k HDR



























General

Unique ID                   : 198866140203565930546806101723701270682 (0x959C39B60F89F33C5763E04C3F93589A)

Complete name               : Sherlock.Holmes.2009.2160p.UHD.HDR.BluRay.x265.10bit.DD5.1.[WMAN-LorD].mkv

Format                      : Matroska

Format version              : Version 4

File size                   : 6.36 GiB

Duration                    : 2 h 8 min

Overall bit rate            : 7 081 kb/s

Movie name                  : Sherlock Holmes (2009) [WMAN-LorD]

Encoded date                : UTC 2020-08-30 19:10:24

Writing application         : mkvmerge v49.0.0 ('Sick Of Losing Soulmates') 64-bit

Writing library             : libebml v1.4.0 + libmatroska v1.6.1

Cover                       : Yes

Attachments                 : cover.jpg

IMDB                        : tt0988045

TMDB                        : movie/10528



Video

ID                          : 1

Format                      : HEVC

Format/Info                 : High Efficiency Video Coding

Format profile              : Main [email protected]@Main

HDR format                  : SMPTE ST 2086, HDR10 compatible

Codec ID                    : V_MPEGH/ISO/HEVC

Duration                    : 2 h 8 min

Bit rate                    : 5 991 kb/s

Width                       : 3 840 pixels

Height                      : 2 160 pixels

Display aspect ratio        : 16:9

Frame rate mode             : Constant

Frame rate                  : 23.976 (24000/1001) FPS

Color space                 : YUV

Chroma subsampling          : 4:2:0 (Type 2)

Bit depth                   : 10 bits

Bits/(Pixel*Frame)          : 0.030

Stream size                 : 5.38 GiB (85%)

Title                       : [WMAN-LorD]

Language                    : English

Default                     : Yes

Forced                      : No

Color range                 : Limited

Color primaries             : BT.2020

Transfer characteristics    : PQ

Matrix coefficients         : BT.2020 non-constant

Mastering display color pri : Display P3

Mastering display luminance : min: 0.0050 cd/m2, max: 4000 cd/m2

Maximum Content Light Level : 343 cd/m2

Maximum Frame-Average Light : 106 cd/m2



Audio

ID                          : 2

Format                      : AC-3

Format/Info                 : Audio Coding 3

Commercial name             : Dolby Digital

Codec ID                    : A_AC3

Duration                    : 2 h 8 min

Bit rate mode               : Constant

Bit rate                    : 640 kb/s

Channel(s)                  : 6 channels

Channel layout              : L R C LFE Ls Rs

Sampling rate               : 48.0 kHz

Frame rate                  : 31.250 FPS (1536 SPF)

Compression mode            : Lossy

Stream size                 : 588 MiB (9%)

Title                       : Compatibility Track / Dolby Digital Audio / 5.1 / 48 kHz / 640 kbps

Language                    : English

Service kind                : Complete Main

Default                     : Yes

Forced                      : No



Text #1

ID                          : 3

Format                      : PGS

Muxing mode                 : zlib

Codec ID                    : S_HDMV/PGS

Codec ID/Info               : Picture based subtitle format used on BDs/HD-DVDs

Duration                    : 2 h 8 min

Bit rate                    : 28.6 kb/s

Count of elements           : 2850

Stream size                 : 26.3 MiB (0%)

Title                       : Portuguese Brazil

Language                    : Portuguese

Default                     : Yes

Forced                      : No



Text #2

ID                          : 4

Format                      : PGS

Muxing mode                 : zlib

Codec ID                    : S_HDMV/PGS

Codec ID/Info               : Picture based subtitle format used on BDs/HD-DVDs

Duration                    : 2 h 0 min

Bit rate                    : 32.8 kb/s

Count of elements           : 3016

Stream size                 : 28.2 MiB (0%)

Title                       : English (SDH)

Language                    : English

Default                     : No

Forced                      : No



Text #3

ID                          : 5

Format                      : PGS

Muxing mode                 : zlib

Codec ID                    : S_HDMV/PGS

Codec ID/Info               : Picture based subtitle format used on BDs/HD-DVDs

Duration                    : 2 h 6 min

Bit rate                    : 16.0 kb/s

Count of elements           : 2884

Stream size                 : 14.5 MiB (0%)

Title                       : Arabic

Language                    : Arabic

Default                     : No

Forced                      : No



Text #4

ID                          : 6

Format                      : PGS

Muxing mode                 : zlib

Codec ID                    : S_HDMV/PGS

Codec ID/Info               : Picture based subtitle format used on BDs/HD-DVDs

Duration                    : 2 h 8 min

Bit rate                    : 28.0 kb/s

Count of elements           : 2820

Stream size                 : 25.7 MiB (0%)

Title                       : Bulgarian

Language                    : Bulgarian

Default                     : No

Forced                      : No



Text #5

ID                          : 7

Format                      : PGS

Muxing mode                 : zlib

Codec ID                    : S_HDMV/PGS

Codec ID/Info               : Picture based subtitle format used on BDs/HD-DVDs

Duration                    : 2 h 6 min

Bit rate                    : 21.5 kb/s

Count of elements           : 2860

Stream size                 : 19.5 MiB (0%)

Title                       : Chinese (Cantonese)

Language                    : Chinese

Default                     : No

Forced                      : No



Text #6

ID                          : 8

Format                      : PGS

Muxing mode                 : zlib

Codec ID                    : S_HDMV/PGS

Codec ID/Info               : Picture based subtitle format used on BDs/HD-DVDs

Duration                    : 1 h 58 min

Bit rate                    : 25.1 kb/s

Count of elements           : 2912

Stream size                 : 21.3 MiB (0%)

Title                       : Chinese (Mandarin Simplified)

Language                    : Chinese

Default                     : No

Forced                      : No



Text #7

ID                          : 9

Format                      : PGS

Muxing mode                 : zlib

Codec ID                    : S_HDMV/PGS

Codec ID/Info               : Picture based subtitle format used on BDs/HD-DVDs

Duration                    : 2 h 6 min

Bit rate                    : 25.0 kb/s

Count of elements           : 2892

Stream size                 : 22.6 MiB (0%)

Title                       : Chinese (Mandarin Traditional)

Language                    : Chinese

Default                     : No

Forced                      : No



Text #8

ID                          : 10

Format                      : PGS

Muxing mode                 : zlib

Codec ID                    : S_HDMV/PGS

Codec ID/Info               : Picture based subtitle format used on BDs/HD-DVDs

Duration                    : 2 h 8 min

Bit rate                    : 25.4 kb/s

Count of elements           : 2832

Stream size                 : 23.4 MiB (0%)

Title                       : Croatian

Language                    : Croatian

Default                     : No

Forced                      : No



Text #9

ID                          : 11

Format                      : PGS

Muxing mode                 : zlib

Codec ID                    : S_HDMV/PGS

Codec ID/Info               : Picture based subtitle format used on BDs/HD-DVDs

Duration                    : 2 h 6 min

Bit rate                    : 25.1 kb/s

Count of elements           : 2834

Stream size                 : 22.8 MiB (0%)

Title                       : Czech

Language                    : Czech

Default                     : No

Forced                      : No



Text #10

ID                          : 12

Format                      : PGS

Muxing mode                 : zlib

Codec ID                    : S_HDMV/PGS

Codec ID/Info               : Picture based subtitle format used on BDs/HD-DVDs

Duration                    : 2 h 6 min

Bit rate                    : 26.6 kb/s

Count of elements           : 2592

Stream size                 : 24.1 MiB (0%)

Title                       : Danish

Language                    : Danish

Default                     : No

Forced                      : No



Text #11

ID                          : 13

Format                      : PGS

Muxing mode                 : zlib

Codec ID                    : S_HDMV/PGS

Codec ID/Info               : Picture based subtitle format used on BDs/HD-DVDs

Duration                    : 1 h 59 min

Bit rate                    : 25.5 kb/s

Count of elements           : 2232

Stream size                 : 21.8 MiB (0%)

Title                       : Dutch

Language                    : Dutch

Default                     : No

Forced                      : No



Text #12

ID                          : 14

Format                      : PGS

Muxing mode                 : zlib

Codec ID                    : S_HDMV/PGS

Codec ID/Info               : Picture based subtitle format used on BDs/HD-DVDs

Duration                    : 2 h 8 min

Bit rate                    : 25.4 kb/s

Count of elements           : 2860

Stream size                 : 23.4 MiB (0%)

Title                       : Estonian

Language                    : Estonian

Default                     : No

Forced                      : No



Text #13

ID                          : 15

Format                      : PGS

Muxing mode                 : zlib

Codec ID                    : S_HDMV/PGS

Codec ID/Info               : Picture based subtitle format used on BDs/HD-DVDs

Duration                    : 2 h 6 min

Bit rate                    : 28.5 kb/s

Count of elements           : 2664

Stream size                 : 25.8 MiB (0%)

Title                       : Finnish

Language                    : Finnish

Default                     : No

Forced                      : No



Text #14

ID                          : 16

Format                      : PGS

Muxing mode                 : zlib

Codec ID                    : S_HDMV/PGS

Codec ID/Info               : Picture based subtitle format used on BDs/HD-DVDs

Duration                    : 2 h 6 min

Bit rate                    : 23.5 kb/s

Count of elements           : 2980

Stream size                 : 21.3 MiB (0%)

Title                       : French

Language                    : French

Default                     : No

Forced                      : No



Text #15

ID                          : 17

Format                      : PGS

Muxing mode                 : zlib

Codec ID                    : S_HDMV/PGS

Codec ID/Info               : Picture based subtitle format used on BDs/HD-DVDs

Duration                    : 2 h 8 min

Bit rate                    : 30.3 kb/s

Count of elements           : 2882

Stream size                 : 27.8 MiB (0%)

Title                       : German

Language                    : German

Default                     : No

Forced                      : No



Text #16

ID                          : 18

Format                      : PGS

Muxing mode                 : zlib

Codec ID                    : S_HDMV/PGS

Codec ID/Info               : Picture based subtitle format used on BDs/HD-DVDs

Duration                    : 2 h 0 min

Bit rate                    : 39.1 kb/s

Count of elements           : 3124

Stream size                 : 33.6 MiB (1%)

Title                       : German (SDH)

Language                    : German

Default                     : No

Forced                      : No



Text #17

ID                          : 19

Format                      : PGS

Muxing mode                 : zlib

Codec ID                    : S_HDMV/PGS

Codec ID/Info               : Picture based subtitle format used on BDs/HD-DVDs

Duration                    : 2 h 8 min

Bit rate                    : 21.5 kb/s

Count of elements           : 2894

Stream size                 : 19.8 MiB (0%)

Title                       : Hebrew

Language                    : Hebrew

Default                     : No

Forced                      : No



Text #18

ID                          : 20

Format                      : PGS

Muxing mode                 : zlib

Codec ID                    : S_HDMV/PGS

Codec ID/Info               : Picture based subtitle format used on BDs/HD-DVDs

Duration                    : 2 h 6 min

Bit rate                    : 24.2 kb/s

Count of elements           : 2688

Stream size                 : 22.0 MiB (0%)

Title                       : Hungarian

Language                    : Hungarian

Default                     : No

Forced                      : No



Text #19

ID                          : 21

Format                      : PGS

Muxing mode                 : zlib

Codec ID                    : S_HDMV/PGS

Codec ID/Info               : Picture based subtitle format used on BDs/HD-DVDs

Duration                    : 2 h 8 min

Bit rate                    : 23.6 kb/s

Count of elements           : 2872

Stream size                 : 21.7 MiB (0%)

Title                       : Icelandic

Language                    : Icelandic

Default                     : No

Forced                      : No



Text #20

ID                          : 22

Format                      : PGS

Muxing mode                 : zlib

Codec ID                    : S_HDMV/PGS

Codec ID/Info               : Picture based subtitle format used on BDs/HD-DVDs

Duration                    : 2 h 8 min

Bit rate                    : 25.2 kb/s

Count of elements           : 2546

Stream size                 : 23.1 MiB (0%)

Title                       : Italian

Language                    : Italian

Default                     : No

Forced                      : No



Text #21

ID                          : 23

Format                      : PGS

Muxing mode                 : zlib

Codec ID                    : S_HDMV/PGS

Codec ID/Info               : Picture based subtitle format used on BDs/HD-DVDs

Duration                    : 2 h 8 min

Bit rate                    : 28.5 kb/s

Count of elements           : 2918

Stream size                 : 26.1 MiB (0%)

Title                       : Italian (SDH)

Language                    : Italian

Default                     : No

Forced                      : No



Text #22

ID                          : 24

Format                      : PGS

Muxing mode                 : zlib

Codec ID                    : S_HDMV/PGS

Codec ID/Info               : Picture based subtitle format used on BDs/HD-DVDs

Duration                    : 1 h 59 min

Bit rate                    : 21.7 kb/s

Count of elements           : 2789

Stream size                 : 18.5 MiB (0%)

Title                       : Japanese

Language                    : Japanese

Default                     : No

Forced                      : No



Text #23

ID                          : 25

Format                      : PGS

Muxing mode                 : zlib

Codec ID                    : S_HDMV/PGS

Codec ID/Info               : Picture based subtitle format used on BDs/HD-DVDs

Duration                    : 2 h 6 min

Bit rate                    : 17.4 kb/s

Count of elements           : 2810

Stream size                 : 15.7 MiB (0%)

Title                       : Korean

Language                    : Korean

Default                     : No

Forced                      : No



Text #24

ID                          : 26

Format                      : PGS

Muxing mode                 : zlib

Codec ID                    : S_HDMV/PGS

Codec ID/Info               : Picture based subtitle format used on BDs/HD-DVDs

Duration                    : 2 h 8 min

Bit rate                    : 23.6 kb/s

Count of elements           : 2872

Stream size                 : 21.7 MiB (0%)

Title                       : Latvian

Language                    : Latvian

Default                     : No

Forced                      : No



Text #25

ID                          : 27

Format                      : PGS

Muxing mode                 : zlib

Codec ID                    : S_HDMV/PGS

Codec ID/Info               : Picture based subtitle format used on BDs/HD-DVDs

Duration                    : 2 h 8 min

Bit rate                    : 28.7 kb/s

Count of elements           : 2944

Stream size                 : 26.4 MiB (0%)

Title                       : Lithuanian

Language                    : Lithuanian

Default                     : No

Forced                      : No



Text #26

ID                          : 28

Format                      : PGS

Muxing mode                 : zlib

Codec ID                    : S_HDMV/PGS

Codec ID/Info               : Picture based subtitle format used on BDs/HD-DVDs

Duration                    : 1 h 59 min

Bit rate                    : 28.3 kb/s

Count of elements           : 2854

Stream size                 : 24.1 MiB (0%)

Title                       : Norwegian

Language                    : Norwegian

Default                     : No

Forced                      : No



Text #27

ID                          : 29

Format                      : PGS

Muxing mode                 : zlib

Codec ID                    : S_HDMV/PGS

Codec ID/Info               : Picture based subtitle format used on BDs/HD-DVDs

Duration                    : 1 h 58 min

Bit rate                    : 25.8 kb/s

Count of elements           : 2166

Stream size                 : 21.9 MiB (0%)

Title                       : Polish

Language                    : Polish

Default                     : No

Forced                      : No



Text #28

ID                          : 30

Format                      : PGS

Muxing mode                 : zlib

Codec ID                    : S_HDMV/PGS

Codec ID/Info               : Picture based subtitle format used on BDs/HD-DVDs

Duration                    : 2 h 8 min

Bit rate                    : 31.0 kb/s

Count of elements           : 2758

Stream size                 : 28.5 MiB (0%)

Title                       : Portuguese (Iberian)

Language                    : Portuguese

Default                     : No

Forced                      : No



Text #29

ID                          : 31

Format                      : PGS

Muxing mode                 : zlib

Codec ID                    : S_HDMV/PGS

Codec ID/Info               : Picture based subtitle format used on BDs/HD-DVDs

Duration                    : 2 h 6 min

Bit rate                    : 29.7 kb/s

Count of elements           : 2900

Stream size                 : 26.9 MiB (0%)

Title                       : Romanian

Language                    : Romanian

Default                     : No

Forced                      : No



Text #30

ID                          : 32

Format                      : PGS

Muxing mode                 : zlib

Codec ID                    : S_HDMV/PGS

Codec ID/Info               : Picture based subtitle format used on BDs/HD-DVDs

Duration                    : 2 h 8 min

Bit rate                    : 28.7 kb/s

Count of elements           : 2898

Stream size                 : 26.3 MiB (0%)

Title                       : Russian

Language                    : Russian

Default                     : No

Forced                      : No



Text #31

ID                          : 33

Format                      : PGS

Muxing mode                 : zlib

Codec ID                    : S_HDMV/PGS

Codec ID/Info               : Picture based subtitle format used on BDs/HD-DVDs

Duration                    : 2 h 8 min

Bit rate                    : 25.9 kb/s

Count of elements           : 2808

Stream size                 : 23.8 MiB (0%)

Title                       : Serbian

Language                    : Serbian

Default                     : No

Forced                      : No



Text #32

ID                          : 34

Format                      : PGS

Muxing mode                 : zlib

Codec ID                    : S_HDMV/PGS

Codec ID/Info               : Picture based subtitle format used on BDs/HD-DVDs

Duration                    : 2 h 8 min

Bit rate                    : 22.9 kb/s

Count of elements           : 2778

Stream size                 : 21.0 MiB (0%)

Title                       : Slovenian

Language                    : Slovenian

Default                     : No

Forced                      : No



Text #33

ID                          : 35

Format                      : PGS

Muxing mode                 : zlib

Codec ID                    : S_HDMV/PGS

Codec ID/Info               : Picture based subtitle format used on BDs/HD-DVDs

Duration                    : 1 h 59 min

Bit rate                    : 30.1 kb/s

Count of elements           : 2844

Stream size                 : 25.7 MiB (0%)

Title                       : Spanish (Castilian)

Language                    : Spanish

Default                     : No

Forced                      : No



Text #34

ID                          : 36

Format                      : PGS

Muxing mode                 : zlib

Codec ID                    : S_HDMV/PGS

Codec ID/Info               : Picture based subtitle format used on BDs/HD-DVDs

Duration                    : 2 h 6 min

Bit rate                    : 28.4 kb/s

Count of elements           : 2946

Stream size                 : 25.7 MiB (0%)

Title                       : Spanish (Latin American)

Language                    : Spanish

Default                     : No

Forced                      : No



Text #35

ID                          : 37

Format                      : PGS

Muxing mode                 : zlib

Codec ID                    : S_HDMV/PGS

Codec ID/Info               : Picture based subtitle format used on BDs/HD-DVDs

Duration                    : 1 h 59 min

Bit rate                    : 30.6 kb/s

Count of elements           : 2762

Stream size                 : 26.1 MiB (0%)

Title                       : Swedish

Language                    : Swedish

Default                     : No

Forced                      : No



Text #36

ID                          : 38

Format                      : PGS

Muxing mode                 : zlib

Codec ID                    : S_HDMV/PGS

Codec ID/Info               : Picture based subtitle format used on BDs/HD-DVDs

Duration                    : 2 h 6 min

Bit rate                    : 26.5 kb/s

Count of elements           : 2874

Stream size                 : 24.0 MiB (0%)

Title                       : Thai

Language                    : Thai

Default                     : No

Forced                      : No



Text #37

ID                          : 39

Format                      : PGS

Muxing mode                 : zlib

Codec ID                    : S_HDMV/PGS

Codec ID/Info               : Picture based subtitle format used on BDs/HD-DVDs

Duration                    : 2 h 8 min

Bit rate                    : 28.8 kb/s

Count of elements           : 2860

Stream size                 : 26.4 MiB (0%)

Title                       : Turkish

Language                    : Turkish

Default                     : No

Forced                      : No



Menu

00:00:00.000                : en:Catching A Killer

00:06:51.161                : en:Case Of Stagnation

00:11:34.819                : en:Telling About Mary

00:15:46.279                : en:Blow By Blow

00:19:13.486                : en:Last Request

00:23:33.662                : en:Bound Together

00:27:54.464                : en:Miss Adler For Hire

00:32:05.841                : en:The Irene I Know

00:37:13.106                : en:Resurrection

00:40:54.994                : en:Apt Prediction

00:44:41.804                : en:Sorcery And Science

00:47:44.278                : en:Meat Or Potatoes?

00:50:56.762                : en:Giving Up The Ship

00:55:22.194                : en:Friends In High Places

00:59:09.045                : en:Blackwood's Lineage

01:03:09.369                : en:Mutual Danger

01:06:12.635                : en:Dead And Bath

01:11:18.774                : en:Remake The World

01:14:43.938                : en:On Purpose

01:17:40.906                : en:Lambs To Slaughter

01:23:39.681                : en:Trap For Three

01:26:11.541                : en:The Best You Can Do

01:31:01.748                : en:Next Target

01:35:19.964                : en:Smoking Out A Coward

01:39:50.568                : en:Countdown To Noon

01:44:25.342                : en:Bell And Death Tolls

01:48:26.542                : en:Cutting A Conjurer Loose

01:54:07.299                : en:My Weak Spot

01:56:12.090                : en:Moriarty's Mark

02:00:30.807                : en:End Credits















Similar Torrents

TORRENT NAMESIZESEEDSPEERS
2 GB912182
1004 MB78568
586 MB73659
769 MB624186
1.5 GB540167
285 MB49932
880 MB34971
1.9 GB34712
941 MB32325
797 MB29370
940 MB29021
823 MB27320
1.4 GB27029
1.9 GB26227
845 MB25920

Torrent Trackers

Files inside this torrent

FILENAMESIZE
icon Sherlock.Holmes.2009.2160p.UHD.HDR.BluRay.x265.10bit.DD5.1.[WMAN-LorD].mkv6.4 GB
icon [TGx]Downloaded from torrentgalaxy.to .txt585 B