Warning! Do NOT Download Without a VPN!
Your IP Address is .   Location is
Your Internet Provider and Government can track your download activities! Hide your IP ADDRESS with a VPN!
We strongly recommend using a VPN service to anonymize your torrent downloads. It's FREE!
START YOUR FREE TRIAL NOW!

Torrent Details

Photo Not Available
Sherlock Holmes
Sherlock Holmes 2009 BDREMUX 2160p HDR seleZen
Size65.2 GB in 1 file
ReleasesAdded on 08/31/20 at 4:31am into the Movies category by Unknown.
MPAA RatingUnknown Rating: N/A
Status0 seeds & 0 peers.
Hash1f3285bb0e40bcec94eddc41722ef4e3f684a4d3
GenreCrime, Drama, Mystery
PeopleDirector: N/A
Writer: N/A
Actors: Ronald Howard, Howard Marion-Crawford, Archie Duncan, Richard Larke
Made inThis movie was made in USA and the original language of this movie is English.
Rating
  • YourBT Visitors

  • Critics

  • IMDB (725 votes)

Status This torrent has been verified.
*

Torrent Description

Информация о фильме

Название: Шерлок Холмс

Оригинальное название: Sherlock Holmes

Год выхода: 2009

Жанр: Детектив, боевик, триллер

Режиссер: Гай Ричи

В ролях: Роберт Дауни мл., Джуд Лоу, Рэйчел МакАдамс, Марк Стронг, Эдди Марсан, Роберт Мэйллет, Джеральдин Джеймс, Келли Райлли, Уильям Хьюстон, Ханс Мэтисон, Джеймс Фокс, Уильям Хоуп, Клайв Расселл, Оран Гурел, Дэвид Гаррик, Кайли Хатчинсон, Эндрю Брук, Том Уотт, Джон Кирни







О фильме: Шерлок Холмс и доктор Ватсон берут могущественного лорда Блэквуда с поличным, чудом предотвращая очередное жертвенное убийство. Пока оккультиста-неумеху готовят к повешению, Ватсон съезжает с Бейкер-стрит к невесте, оставляя Холмса в одиночестве, что незамедлительно сказывается на душевном здоровье сыщика. Он впадает в депрессию. Блэквуд повешен, и кажется, что столь сильного визави больше не найти, однако через несколько дней по Лондону расходятся слухи о воскрешении лорда. В его могиле найден другой. Холмс и Ватсон снова в деле! Пока лучшие друзья рыщут по следу восставшего из ада, в город прибывает аферистка Ирэн Адлер, когда-то влюбившая в себя Холмса. В этом расследовании у неё есть свои резоны…



Страна: США

Студия: Warner Bros. Pictures, Village Roadshow Pictures, Silver Pictures

Продолжительность: 02:08:30

Перевод(ы):

#1: Дублированный | Лицензия

#2: Профессиональный двухголосый | BBC Saint-Petersburg

#3: Авторский | Сербин

#4: Авторский | Киреев

#5: Авторский | Гаврилов

#6: Авторский | Goblin (Пучков)



Качество: BDRemux 2160p

Видео: 3840x2160 at 23.976 fps, MPEG-H HEVC HDR Video, 54900 kbps avg

Аудио #01: 48 kHz, AC3, 5.1, 448 Kbps | Лицензия | RUS |

Аудио #02: 48 kHz, DTS-HD MA, 5.1, 3970 Kbps | BBC Saint-Petersbur | RUS |

Аудио #03: 48 kHz, DTS-HD MA, 5.1, 3965 Kbps | Сербин | RUS |

Аудио #04: 48 kHz, DTS-HD MA, 5.1, 4007 Kbps | Киреев | RUS |

Аудио #05: 48 kHz, DTS, 5.1, 755 Kbps | Гаврилов | RUS |

Аудио #06: 48 kHz, AC3, 2.0, 192 Kbps | Goblin | RUS |

Аудио #07: 48 kHz, AC3, 5.1, 448 Kbps | Лицензия | UKR |

Аудио #08: 48 kHz, DTS-HD MA, 5.1, 3979 Kbps | Оригинал | ENG |

Субтитры: Русские (Forced, 2 x full, SDH Colored), украинские (Forced, Full), английские







MIGeneral

Unique ID : 173495330624437258309972405495049850780 (0x8285FC39169412A1C1ECF21E8C098F9C)

Complete name : D:Video111Sherlock.Holmes.2009.BDREMUX.2160p.HDR.seleZen.mkv

Format : Matroska

Format version : Version 4

File size : 65.2 GiB

Duration : 2 h 8 min

Overall bit rate mode : Variable

Overall bit rate : 72.7 Mb/s

Movie name : Sherlock Holmes 2009 4K UHD from селезень

Encoded date : UTC 2020-08-31 01:12:49

Writing application : mkvmerge v40.0.0 ('Old Town Road + Pony') 64-bit

Writing library : libebml v1.3.9 + libmatroska v1.5.2



Video

ID : 1

Format : HEVC

Format/Info : High Efficiency Video Coding

Format profile : Main [email protected]@High

HDR format : SMPTE ST 2086, HDR10 compatible

Codec ID : V_MPEGH/ISO/HEVC

Duration : 2 h 8 min

Bit rate : 54.9 Mb/s

Width : 3 840 pixels

Height : 2 160 pixels

Display aspect ratio : 16:9

Frame rate mode : Constant

Frame rate : 23.976 (24000/1001) FPS

Color space : YUV

Chroma subsampling : 4:2:0 (Type 2)

Bit depth : 10 bits

Bits/(Pixel*Frame) : 0.276

Stream size : 49.3 GiB (76%)

Writing library : ATEME Titan File 3.9.0 (4.9.0.0)

Language : English

Default : Yes

Forced : No

Color range : Limited

Color primaries : BT.2020

Transfer characteristics : PQ

Matrix coefficients : BT.2020 non-constant

Mastering display color pri : Display P3

Mastering display luminance : min: 0.0050 cd/m2, max: 4000 cd/m2

Maximum Content Light Level : 343 cd/m2

Maximum Frame-Average Light : 106 cd/m2



Audio #1

ID : 2

Format : AC-3

Format/Info : Audio Coding 3

Commercial name : Dolby Digital

Codec ID : A_AC3

Duration : 2 h 8 min

Bit rate mode : Constant

Bit rate : 448 kb/s

Channel(s) : 6 channels

Channel layout : L R C LFE Ls Rs

Sampling rate : 48.0 kHz

Frame rate : 31.250 FPS (1536 SPF)

Compression mode : Lossy

Stream size : 412 MiB (1%)

Title : Dub [License]

Language : Russian

Service kind : Complete Main

Default : Yes

Forced : Yes



Audio #2

ID : 3

Format : DTS XLL

Format/Info : Digital Theater Systems

Commercial name : DTS-HD Master Audio

Codec ID : A_DTS

Duration : 2 h 8 min

Bit rate mode : Variable

Bit rate : 3 970 kb/s

Channel(s) : 6 channels

Channel layout : C L R Ls Rs LFE

Sampling rate : 48.0 kHz

Frame rate : 93.750 FPS (512 SPF)

Bit depth : 24 bits

Compression mode : Lossless

Stream size : 3.56 GiB (5%)

Title : DVO [BBC Saint-Petersburg]

Language : Russian

Default : No

Forced : No



Audio #3

ID : 4

Format : DTS XLL

Format/Info : Digital Theater Systems

Commercial name : DTS-HD Master Audio

Codec ID : A_DTS

Duration : 2 h 8 min

Bit rate mode : Variable

Bit rate : 3 965 kb/s

Channel(s) : 6 channels

Channel layout : C L R Ls Rs LFE

Sampling rate : 48.0 kHz

Frame rate : 93.750 FPS (512 SPF)

Bit depth : 24 bits

Compression mode : Lossless

Stream size : 3.56 GiB (5%)

Title : AVO [Serbin]

Language : Russian

Default : No

Forced : No



Audio #4

ID : 5

Format : DTS XLL

Format/Info : Digital Theater Systems

Commercial name : DTS-HD Master Audio

Codec ID : A_DTS

Duration : 2 h 8 min

Bit rate mode : Variable

Bit rate : 4 007 kb/s

Channel(s) : 6 channels

Channel layout : C L R Ls Rs LFE

Sampling rate : 48.0 kHz

Frame rate : 93.750 FPS (512 SPF)

Bit depth : 24 bits

Compression mode : Lossless

Stream size : 3.60 GiB (6%)

Title : AVO [Kireev]

Language : Russian

Default : No

Forced : No



Audio #5

ID : 6

Format : DTS

Format/Info : Digital Theater Systems

Codec ID : A_DTS

Duration : 2 h 8 min

Bit rate mode : Constant

Bit rate : 755 kb/s

Channel(s) : 6 channels

Channel layout : C L R Ls Rs LFE

Sampling rate : 48.0 kHz

Frame rate : 93.750 FPS (512 SPF)

Bit depth : 24 bits

Compression mode : Lossy

Stream size : 693 MiB (1%)

Title : AVO [Gavrilov]

Language : Russian

Default : No

Forced : No



Audio #6

ID : 7

Format : AC-3

Format/Info : Audio Coding 3

Commercial name : Dolby Digital

Codec ID : A_AC3

Duration : 2 h 8 min

Bit rate mode : Constant

Bit rate : 192 kb/s

Channel(s) : 2 channels

Channel layout : L R

Sampling rate : 48.0 kHz

Frame rate : 31.250 FPS (1536 SPF)

Compression mode : Lossy

Stream size : 176 MiB (0%)

Title : AVO [Goblin]

Language : Russian

Service kind : Complete Main

Default : No

Forced : No



Audio #7

ID : 8

Format : AC-3

Format/Info : Audio Coding 3

Commercial name : Dolby Digital

Codec ID : A_AC3

Duration : 2 h 8 min

Bit rate mode : Constant

Bit rate : 448 kb/s

Channel(s) : 6 channels

Channel layout : L R C LFE Ls Rs

Sampling rate : 48.0 kHz

Frame rate : 31.250 FPS (1536 SPF)

Compression mode : Lossy

Stream size : 412 MiB (1%)

Title : Dub [License]

Language : Ukrainian

Service kind : Complete Main

Default : No

Forced : No



Audio #8

ID : 9

Format : DTS XLL

Format/Info : Digital Theater Systems

Commercial name : DTS-HD Master Audio

Codec ID : A_DTS

Duration : 2 h 8 min

Bit rate mode : Variable

Bit rate : 3 979 kb/s

Channel(s) : 6 channels

Channel layout : C L R Ls Rs LFE

Sampling rate : 48.0 kHz

Frame rate : 93.750 FPS (512 SPF)

Bit depth : 24 bits

Compression mode : Lossless

Stream size : 3.57 GiB (5%)

Title : Original

Language : English

Default : No

Forced : No



Text #1

ID : 10

Format : UTF-8

Codec ID : S_TEXT/UTF8

Codec ID/Info : UTF-8 Plain Text

Duration : 1 h 54 min

Bit rate : 1 b/s

Count of elements : 35

Stream size : 1.54 KiB (0%)

Title : Forced

Language : Russian

Default : Yes

Forced : Yes



Text #2

ID : 11

Format : UTF-8

Codec ID : S_TEXT/UTF8

Codec ID/Info : UTF-8 Plain Text

Duration : 2 h 6 min

Bit rate : 90 b/s

Count of elements : 1448

Stream size : 84.1 KiB (0%)

Title : Full [R5]

Language : Russian

Default : No

Forced : No



Text #3

ID : 12

Format : UTF-8

Codec ID : S_TEXT/UTF8

Codec ID/Info : UTF-8 Plain Text

Duration : 2 h 1 min

Bit rate : 101 b/s

Count of elements : 1385

Stream size : 90.7 KiB (0%)

Title : Full [Voronine]

Language : Russian

Default : No

Forced : No



Text #4

ID : 13

Format : UTF-8

Codec ID : S_TEXT/UTF8

Codec ID/Info : UTF-8 Plain Text

Duration : 2 h 1 min

Bit rate : 123 b/s

Count of elements : 1385

Stream size : 110 KiB (0%)

Title : SDH Colored [Voronine]

Language : Russian

Default : No

Forced : No



Text #5

ID : 14

Format : UTF-8

Codec ID : S_TEXT/UTF8

Codec ID/Info : UTF-8 Plain Text

Duration : 1 h 54 min

Bit rate : 1 b/s

Count of elements : 34

Stream size : 1.53 KiB (0%)

Title : Forced

Language : Ukrainian

Default : No

Forced : No



Text #6

ID : 15

Format : UTF-8

Codec ID : S_TEXT/UTF8

Codec ID/Info : UTF-8 Plain Text

Duration : 2 h 6 min

Bit rate : 73 b/s

Count of elements : 1340

Stream size : 68.4 KiB (0%)

Title : Full

Language : Ukrainian

Default : No

Forced : No



Text #7

ID : 16

Format : UTF-8

Codec ID : S_TEXT/UTF8

Codec ID/Info : UTF-8 Plain Text

Duration : 1 h 58 min

Bit rate : 57 b/s

Count of elements : 1409

Stream size : 50.2 KiB (0%)

Title : Full

Language : English

Default : No

Forced : No



Text #8

ID : 17

Format : UTF-8

Codec ID : S_TEXT/UTF8

Codec ID/Info : UTF-8 Plain Text

Duration : 2 h 0 min

Bit rate : 59 b/s

Count of elements : 1503

Stream size : 52.8 KiB (0%)

Title : SDH

Language : English

Default : No

Forced : No



Menu

00:00:00.000 : en:Catching A Killer

00:06:51.161 : en:Case Of Stagnation

00:11:34.819 : en:Telling About Mary

00:15:46.279 : en:Blow By Blow

00:19:13.486 : en:Last Request

00:23:33.662 : en:Bound Together

00:27:54.464 : en:Miss Adler For Hire

00:32:05.841 : en:The Irene I Know

00:37:13.106 : en:Resurrection

00:40:54.994 : en:Apt Prediction

00:44:41.804 : en:Sorcery And Science

00:47:44.278 : en:Meat Or Potatoes?

00:50:56.762 : en:Giving Up The Ship

00:55:22.194 : en:Friends In High Places

00:59:09.045 : en:Blackwood's Lineage

01:03:09.369 : en:Mutual Danger

01:06:12.635 : en:Dead And Bath

01:11:18.774 : en:Remake The World

01:14:43.938 : en:On Purpose

01:17:40.906 : en:Lambs To Slaughter

01:23:39.681 : en:Trap For Three

01:26:11.541 : en:The Best You Can Do

01:31:01.748 : en:Next Target

01:35:19.964 : en:Smoking Out A Coward

01:39:50.568 : en:Countdown To Noon

01:44:25.342 : en:Bell And Death Tolls

01:48:26.542 : en:Cutting A Conjurer Loose

01:54:07.299 : en:My Weak Spot

01:56:12.090 : en:Moriarty's Mark

02:00:30.807 : en:End Credits



Релиз от: Присоединяйся к:





Similar Torrents

TORRENT NAMESIZESEEDSPEERS
63.7 GB00
65.2 GB00

Torrent Trackers

Files inside this torrent

FILENAMESIZE
icon Sherlock.Holmes.2009.BDREMUX.2160p.HDR.seleZen.mkv65.2 GB