Warning! Do NOT Download Without a VPN!
Your IP Address is .   Location is
Your Internet Provider and Government can track your download activities! Hide your IP ADDRESS with a VPN!
We strongly recommend using a VPN service to anonymize your torrent downloads. It's FREE!
START YOUR FREE TRIAL NOW!

Torrent Details

Photo Not Available
Sherlock Holmes
Sherlock Holmes (2009) (2160p HDR BDRip x265 10bit EAC3 5.1 - r0b0t) [TAoE]
Size18.4 GB in 1 file
ReleasesAdded on 09/03/20 at 3:52pm into the Movies category by Unknown.
MPAA RatingUnknown Rating: N/A
Status0 seeds & 0 peers.
Hash0b6740250698ac6dabdba22430a98a68ef966bb2
GenreCrime, Drama, Mystery
PeopleDirector: N/A
Writer: N/A
Actors: Ronald Howard, Howard Marion-Crawford, Archie Duncan, Richard Larke
Made inThis movie was made in USA and the original language of this movie is English.
Rating
  • YourBT Visitors

  • Critics

  • IMDB (725 votes)

Status This torrent has been verified.
*

Torrent Description









Sherlock Holmes (2009) IMDB





















Source

Sherlock.Holmes.2009.UHD.BluRay.2160p.DTS-HD.MA.5.1.HEVC.HYBRID.REMUX-FraMeSToR



Media Information

General

Unique ID                   : 49418118172202534676739695736260784107 (0x252D9556F86466A8AAB079493181EFEB)

Complete name               : Sherlock Holmes (2009) (2160p HDR BDRip x265 10bit EAC3 5.1 - r0b0t) [TAoE].mkv

Format                      : Matroska

Format version              : Version 4

File size                   : 18.4 GiB

Duration                    : 2 h 8 min

Overall bit rate            : 20.5 Mb/s

Writing application         : Lavf58.29.100

Writing library             : Lavf58.29.100

ErrorDetectionType          : Per level 1

IMDB                        : tt0988045

TMDB                        : movie/10528



Video

ID                          : 1

Format                      : HEVC

Format/Info                 : High Efficiency Video Coding

Format profile              : Main [email protected]@High

HDR format                  : SMPTE ST 2086, HDR10 compatible

Codec ID                    : V_MPEGH/ISO/HEVC

Duration                    : 2 h 8 min

Bit rate                    : 19.1 Mb/s

Width                       : 3 840 pixels

Height                      : 2 160 pixels

Display aspect ratio        : 16:9

Frame rate mode             : Variable

Frame rate                  : 23.976 FPS

Color space                 : YUV

Chroma subsampling          : 4:2:0 (Type 2)

Bit depth                   : 10 bits

Bits/(Pixel*Frame)          : 0.096

Stream size                 : 17.2 GiB (93%)

Title                       : Encoded by r0b0t for TAoE using Iro V1.7

Writing library             : x265 3.3+29-1e3dbf09ee4f:[Windows][GCC 9.3.1][64 bit] 10bit

Encoding settings           : cpuid=1111039 / frame-threads=4 / numa-pools=16 / wpp / no-pmode / no-pme / no-psnr / no-ssim / log-level=2 / input-csp=1 / input-res=3840x2160 / interlace=0 / total-frames=0 / level-idc=51 / high-tier=1 / uhd-bd=0 / ref=4 / no-allow-non-conformance / repeat-headers / annexb / no-aud / no-hrd / info / hash=0 / no-temporal-layers / open-gop / min-keyint=23 / keyint=250 / gop-lookahead=0 / bframes=8 / b-adapt=2 / b-pyramid / bframe-bias=0 / rc-lookahead=80 / lookahead-slices=4 / scenecut=40 / hist-scenecut=0 / radl=0 / no-splice / no-intra-refresh / ctu=64 / min-cu-size=8 / no-rect / no-amp / max-tu-size=32 / tu-inter-depth=1 / tu-intra-depth=1 / limit-tu=0 / rdoq-level=2 / dynamic-rd=0.00 / no-ssim-rd / signhide / no-tskip / nr-intra=0 / nr-inter=0 / no-constrained-intra / no-strong-intra-smoothing / max-merge=3 / limit-refs=3 / limit-modes / me=3 / subme=5 / merange=57 / temporal-mvp / no-frame-dup / no-hme / weightp / no-weightb / no-analyze-src-pics / deblock=0:0 / sao / no-sao-non-deblock / rd=4 / selective-sao=4 / no-early-skip / rskip / no-fast-intra / no-tskip-fast / no-cu-lossless / no-b-intra / no-splitrd-skip / rdpenalty=0 / psy-rd=1.30 / psy-rdoq=2.00 / no-rd-refine / no-lossless / cbqpoffs=0 / crqpoffs=0 / rc=crf / crf=16.0 / qcomp=0.60 / qpstep=4 / stats-write=0 / stats-read=0 / vbv-maxrate=160000 / vbv-bufsize=160000 / vbv-init=0.9 / crf-max=0.0 / crf-min=0.0 / ipratio=1.40 / pbratio=1.30 / aq-mode=4 / aq-strength=1.10 / cutree / zone-count=0 / no-strict-cbr / qg-size=32 / no-rc-grain / qpmax=69 / qpmin=0 / no-const-vbv / sar=1 / overscan=0 / videoformat=5 / range=0 / colorprim=9 / transfer=16 / colormatrix=9 / chromaloc=1 / chromaloc-top=2 / chromaloc-bottom=2 / display-window=0 / master-display=G(13250,34500)B(7500,3000)R(34000,16000)WP(15635,16450)L(40000000,050) / cll=343,106 / min-luma=0 / max-luma=1023 / log2-max-poc-lsb=8 / vui-timing-info / vui-hrd-info / slices=1 / no-opt-qp-pps / no-opt-ref-list-length-pps / no-multi-pass-opt-rps / scenecut-bias=0.05 / hist-threshold=0.01 / no-opt-cu-delta-qp / no-aq-motion / hdr10 / hdr10-opt / no-dhdr10-opt / no-idr-recovery-sei / analysis-reuse-level=0 / analysis-save-reuse-level=0 / analysis-load-reuse-level=0 / scale-factor=0 / refine-intra=0 / refine-inter=0 / refine-mv=1 / refine-ctu-distortion=0 / no-limit-sao / ctu-info=0 / no-lowpass-dct / refine-analysis-type=0 / copy-pic=1 / max-ausize-factor=1.0 / no-dynamic-refine / no-single-sei / no-hevc-aq / no-svt / no-field / qp-adaptation-range=1.00 / no-scenecut-aware-qpconformance-window-offsets / right=0 / bottom=0 / decoder-max-rate=0

Default                     : Yes

Forced                      : No

Color range                 : Limited

Color primaries             : BT.2020

Transfer characteristics    : PQ

Matrix coefficients         : BT.2020 non-constant

Mastering display color pri : Display P3

Mastering display luminance : min: 0.0050 cd/m2, max: 4000 cd/m2

Maximum Content Light Level : 343 cd/m2

Maximum Frame-Average Light : 106 cd/m2



Audio

ID                          : 2

Format                      : E-AC-3

Format/Info                 : Enhanced AC-3

Commercial name             : Dolby Digital Plus

Codec ID                    : A_EAC3

Duration                    : 2 h 8 min

Bit rate mode               : Constant

Bit rate                    : 448 kb/s

Channel(s)                  : 6 channels

Channel layout              : L R C LFE Ls Rs

Sampling rate               : 48.0 kHz

Frame rate                  : 31.250 FPS (1536 SPF)

Bit depth                   : 24 bits

Compression mode            : Lossy

Stream size                 : 412 MiB (2%)

Writing library             : Lavc58.54.100 eac3

Language                    : English

Service kind                : Complete Main

Default                     : Yes

Forced                      : No



Text #1

ID                          : 3

Format                      : PGS

Codec ID                    : S_HDMV/PGS

Codec ID/Info               : Picture based subtitle format used on BDs/HD-DVDs

Duration                    : 2 h 0 min

Bit rate                    : 32.8 kb/s

Count of elements           : 3016

Stream size                 : 28.2 MiB (0%)

Title                       : English (SDH)

Language                    : English

Default                     : No

Forced                      : No



Text #2

ID                          : 4

Format                      : PGS

Codec ID                    : S_HDMV/PGS

Codec ID/Info               : Picture based subtitle format used on BDs/HD-DVDs

Duration                    : 2 h 6 min

Bit rate                    : 16.0 kb/s

Count of elements           : 2884

Stream size                 : 14.5 MiB (0%)

Title                       : Arabic

Language                    : Arabic

Default                     : No

Forced                      : No



Text #3

ID                          : 5

Format                      : PGS

Codec ID                    : S_HDMV/PGS

Codec ID/Info               : Picture based subtitle format used on BDs/HD-DVDs

Duration                    : 2 h 8 min

Bit rate                    : 28.0 kb/s

Count of elements           : 2820

Stream size                 : 25.7 MiB (0%)

Title                       : Bulgarian

Language                    : Bulgarian

Default                     : No

Forced                      : No



Text #4

ID                          : 6

Format                      : PGS

Codec ID                    : S_HDMV/PGS

Codec ID/Info               : Picture based subtitle format used on BDs/HD-DVDs

Duration                    : 2 h 6 min

Bit rate                    : 21.5 kb/s

Count of elements           : 2860

Stream size                 : 19.5 MiB (0%)

Title                       : Chinese (Cantonese)

Language                    : Chinese

Default                     : No

Forced                      : No



Text #5

ID                          : 7

Format                      : PGS

Codec ID                    : S_HDMV/PGS

Codec ID/Info               : Picture based subtitle format used on BDs/HD-DVDs

Duration                    : 1 h 58 min

Bit rate                    : 25.1 kb/s

Count of elements           : 2912

Stream size                 : 21.3 MiB (0%)

Title                       : Chinese (Mandarin Simplified)

Language                    : Chinese

Default                     : No

Forced                      : No



Text #6

ID                          : 8

Format                      : PGS

Codec ID                    : S_HDMV/PGS

Codec ID/Info               : Picture based subtitle format used on BDs/HD-DVDs

Duration                    : 2 h 6 min

Bit rate                    : 25.0 kb/s

Count of elements           : 2892

Stream size                 : 22.6 MiB (0%)

Title                       : Chinese (Mandarin Traditional)

Language                    : Chinese

Default                     : No

Forced                      : No



Text #7

ID                          : 9

Format                      : PGS

Codec ID                    : S_HDMV/PGS

Codec ID/Info               : Picture based subtitle format used on BDs/HD-DVDs

Duration                    : 2 h 8 min

Bit rate                    : 25.4 kb/s

Count of elements           : 2832

Stream size                 : 23.4 MiB (0%)

Title                       : Croatian

Language                    : Croatian

Default                     : No

Forced                      : No



Text #8

ID                          : 10

Format                      : PGS

Codec ID                    : S_HDMV/PGS

Codec ID/Info               : Picture based subtitle format used on BDs/HD-DVDs

Duration                    : 2 h 6 min

Bit rate                    : 25.1 kb/s

Count of elements           : 2834

Stream size                 : 22.8 MiB (0%)

Title                       : Czech

Language                    : Czech

Default                     : No

Forced                      : No



Text #9

ID                          : 11

Format                      : PGS

Codec ID                    : S_HDMV/PGS

Codec ID/Info               : Picture based subtitle format used on BDs/HD-DVDs

Duration                    : 2 h 6 min

Bit rate                    : 26.6 kb/s

Count of elements           : 2592

Stream size                 : 24.1 MiB (0%)

Title                       : Danish

Language                    : Danish

Default                     : No

Forced                      : No



Text #10

ID                          : 12

Format                      : PGS

Codec ID                    : S_HDMV/PGS

Codec ID/Info               : Picture based subtitle format used on BDs/HD-DVDs

Duration                    : 1 h 59 min

Bit rate                    : 25.5 kb/s

Count of elements           : 2232

Stream size                 : 21.8 MiB (0%)

Title                       : Dutch

Language                    : Dutch

Default                     : No

Forced                      : No



Text #11

ID                          : 13

Format                      : PGS

Codec ID                    : S_HDMV/PGS

Codec ID/Info               : Picture based subtitle format used on BDs/HD-DVDs

Duration                    : 2 h 8 min

Bit rate                    : 25.4 kb/s

Count of elements           : 2860

Stream size                 : 23.4 MiB (0%)

Title                       : Estonian

Language                    : Estonian

Default                     : No

Forced                      : No



Text #12

ID                          : 14

Format                      : PGS

Codec ID                    : S_HDMV/PGS

Codec ID/Info               : Picture based subtitle format used on BDs/HD-DVDs

Duration                    : 2 h 6 min

Bit rate                    : 28.5 kb/s

Count of elements           : 2664

Stream size                 : 25.8 MiB (0%)

Title                       : Finnish

Language                    : Finnish

Default                     : No

Forced                      : No



Text #13

ID                          : 15

Format                      : PGS

Codec ID                    : S_HDMV/PGS

Codec ID/Info               : Picture based subtitle format used on BDs/HD-DVDs

Duration                    : 2 h 6 min

Bit rate                    : 23.5 kb/s

Count of elements           : 2980

Stream size                 : 21.3 MiB (0%)

Title                       : French

Language                    : French

Default                     : No

Forced                      : No



Text #14

ID                          : 16

Format                      : PGS

Codec ID                    : S_HDMV/PGS

Codec ID/Info               : Picture based subtitle format used on BDs/HD-DVDs

Duration                    : 2 h 8 min

Bit rate                    : 30.3 kb/s

Count of elements           : 2882

Stream size                 : 27.8 MiB (0%)

Title                       : German

Language                    : German

Default                     : No

Forced                      : No



Text #15

ID                          : 17

Format                      : PGS

Codec ID                    : S_HDMV/PGS

Codec ID/Info               : Picture based subtitle format used on BDs/HD-DVDs

Duration                    : 2 h 0 min

Bit rate                    : 39.1 kb/s

Count of elements           : 3124

Stream size                 : 33.6 MiB (0%)

Title                       : German (SDH)

Language                    : German

Default                     : No

Forced                      : No



Text #16

ID                          : 18

Format                      : PGS

Codec ID                    : S_HDMV/PGS

Codec ID/Info               : Picture based subtitle format used on BDs/HD-DVDs

Duration                    : 2 h 8 min

Bit rate                    : 21.5 kb/s

Count of elements           : 2894

Stream size                 : 19.8 MiB (0%)

Title                       : Hebrew

Language                    : Hebrew

Default                     : No

Forced                      : No



Text #17

ID                          : 19

Format                      : PGS

Codec ID                    : S_HDMV/PGS

Codec ID/Info               : Picture based subtitle format used on BDs/HD-DVDs

Duration                    : 2 h 6 min

Bit rate                    : 24.2 kb/s

Count of elements           : 2688

Stream size                 : 22.0 MiB (0%)

Title                       : Hungarian

Language                    : Hungarian

Default                     : No

Forced                      : No



Text #18

ID                          : 20

Format                      : PGS

Codec ID                    : S_HDMV/PGS

Codec ID/Info               : Picture based subtitle format used on BDs/HD-DVDs

Duration                    : 2 h 8 min

Bit rate                    : 23.6 kb/s

Count of elements           : 2872

Stream size                 : 21.7 MiB (0%)

Title                       : Icelandic

Language                    : Icelandic

Default                     : No

Forced                      : No



Text #19

ID                          : 21

Format                      : PGS

Codec ID                    : S_HDMV/PGS

Codec ID/Info               : Picture based subtitle format used on BDs/HD-DVDs

Duration                    : 2 h 8 min

Bit rate                    : 25.2 kb/s

Count of elements           : 2546

Stream size                 : 23.1 MiB (0%)

Title                       : Italian

Language                    : Italian

Default                     : No

Forced                      : No



Text #20

ID                          : 22

Format                      : PGS

Codec ID                    : S_HDMV/PGS

Codec ID/Info               : Picture based subtitle format used on BDs/HD-DVDs

Duration                    : 2 h 8 min

Bit rate                    : 28.5 kb/s

Count of elements           : 2918

Stream size                 : 26.1 MiB (0%)

Title                       : Italian (SDH)

Language                    : Italian

Default                     : No

Forced                      : No



Text #21

ID                          : 23

Format                      : PGS

Codec ID                    : S_HDMV/PGS

Codec ID/Info               : Picture based subtitle format used on BDs/HD-DVDs

Duration                    : 1 h 59 min

Bit rate                    : 21.7 kb/s

Count of elements           : 2789

Stream size                 : 18.5 MiB (0%)

Title                       : Japanese

Language                    : Japanese

Default                     : No

Forced                      : No



Text #22

ID                          : 24

Format                      : PGS

Codec ID                    : S_HDMV/PGS

Codec ID/Info               : Picture based subtitle format used on BDs/HD-DVDs

Duration                    : 2 h 6 min

Bit rate                    : 17.4 kb/s

Count of elements           : 2810

Stream size                 : 15.7 MiB (0%)

Title                       : Korean

Language                    : Korean

Default                     : No

Forced                      : No



Text #23

ID                          : 25

Format                      : PGS

Codec ID                    : S_HDMV/PGS

Codec ID/Info               : Picture based subtitle format used on BDs/HD-DVDs

Duration                    : 2 h 8 min

Bit rate                    : 23.6 kb/s

Count of elements           : 2872

Stream size                 : 21.7 MiB (0%)

Title                       : Latvian

Language                    : Latvian

Default                     : No

Forced                      : No



Text #24

ID                          : 26

Format                      : PGS

Codec ID                    : S_HDMV/PGS

Codec ID/Info               : Picture based subtitle format used on BDs/HD-DVDs

Duration                    : 2 h 8 min

Bit rate                    : 28.7 kb/s

Count of elements           : 2944

Stream size                 : 26.4 MiB (0%)

Title                       : Lithuanian

Language                    : Lithuanian

Default                     : No

Forced                      : No



Text #25

ID                          : 27

Format                      : PGS

Codec ID                    : S_HDMV/PGS

Codec ID/Info               : Picture based subtitle format used on BDs/HD-DVDs

Duration                    : 1 h 59 min

Bit rate                    : 28.3 kb/s

Count of elements           : 2854

Stream size                 : 24.1 MiB (0%)

Title                       : Norwegian

Language                    : Norwegian

Default                     : No

Forced                      : No



Text #26

ID                          : 28

Format                      : PGS

Codec ID                    : S_HDMV/PGS

Codec ID/Info               : Picture based subtitle format used on BDs/HD-DVDs

Duration                    : 1 h 58 min

Bit rate                    : 25.8 kb/s

Count of elements           : 2166

Stream size                 : 21.9 MiB (0%)

Title                       : Polish

Language                    : Polish

Default                     : No

Forced                      : No



Text #27

ID                          : 29

Format                      : PGS

Codec ID                    : S_HDMV/PGS

Codec ID/Info               : Picture based subtitle format used on BDs/HD-DVDs

Duration                    : 2 h 8 min

Bit rate                    : 28.6 kb/s

Count of elements           : 2850

Stream size                 : 26.3 MiB (0%)

Title                       : Portuguese (Brazilian)

Language                    : Portuguese

Default                     : No

Forced                      : No



Text #28

ID                          : 30

Format                      : PGS

Codec ID                    : S_HDMV/PGS

Codec ID/Info               : Picture based subtitle format used on BDs/HD-DVDs

Duration                    : 2 h 8 min

Bit rate                    : 31.0 kb/s

Count of elements           : 2758

Stream size                 : 28.5 MiB (0%)

Title                       : Portuguese (Iberian)

Language                    : Portuguese

Default                     : No

Forced                      : No



Text #29

ID                          : 31

Format                      : PGS

Codec ID                    : S_HDMV/PGS

Codec ID/Info               : Picture based subtitle format used on BDs/HD-DVDs

Duration                    : 2 h 6 min

Bit rate                    : 29.7 kb/s

Count of elements           : 2900

Stream size                 : 26.9 MiB (0%)

Title                       : Romanian

Language                    : Romanian

Default                     : No

Forced                      : No



Text #30

ID                          : 32

Format                      : PGS

Codec ID                    : S_HDMV/PGS

Codec ID/Info               : Picture based subtitle format used on BDs/HD-DVDs

Duration                    : 2 h 8 min

Bit rate                    : 28.7 kb/s

Count of elements           : 2898

Stream size                 : 26.3 MiB (0%)

Title                       : Russian

Language                    : Russian

Default                     : No

Forced                      : No



Text #31

ID                          : 33

Format                      : PGS

Codec ID                    : S_HDMV/PGS

Codec ID/Info               : Picture based subtitle format used on BDs/HD-DVDs

Duration                    : 2 h 8 min

Bit rate                    : 25.9 kb/s

Count of elements           : 2808

Stream size                 : 23.8 MiB (0%)

Title                       : Serbian

Language                    : Serbian

Default                     : No

Forced                      : No



Text #32

ID                          : 34

Format                      : PGS

Codec ID                    : S_HDMV/PGS

Codec ID/Info               : Picture based subtitle format used on BDs/HD-DVDs

Duration                    : 2 h 8 min

Bit rate                    : 22.9 kb/s

Count of elements           : 2778

Stream size                 : 21.0 MiB (0%)

Title                       : Slovenian

Language                    : Slovenian

Default                     : No

Forced                      : No



Text #33

ID                          : 35

Format                      : PGS

Codec ID                    : S_HDMV/PGS

Codec ID/Info               : Picture based subtitle format used on BDs/HD-DVDs

Duration                    : 1 h 59 min

Bit rate                    : 30.1 kb/s

Count of elements           : 2844

Stream size                 : 25.7 MiB (0%)

Title                       : Spanish (Castilian)

Language                    : Spanish

Default                     : No

Forced                      : No



Text #34

ID                          : 36

Format                      : PGS

Codec ID                    : S_HDMV/PGS

Codec ID/Info               : Picture based subtitle format used on BDs/HD-DVDs

Duration                    : 2 h 6 min

Bit rate                    : 28.4 kb/s

Count of elements           : 2946

Stream size                 : 25.7 MiB (0%)

Title                       : Spanish (Latin American)

Language                    : Spanish

Default                     : No

Forced                      : No



Text #35

ID                          : 37

Format                      : PGS

Codec ID                    : S_HDMV/PGS

Codec ID/Info               : Picture based subtitle format used on BDs/HD-DVDs

Duration                    : 1 h 59 min

Bit rate                    : 30.6 kb/s

Count of elements           : 2762

Stream size                 : 26.1 MiB (0%)

Title                       : Swedish

Language                    : Swedish

Default                     : No

Forced                      : No



Text #36

ID                          : 38

Format                      : PGS

Codec ID                    : S_HDMV/PGS

Codec ID/Info               : Picture based subtitle format used on BDs/HD-DVDs

Duration                    : 2 h 6 min

Bit rate                    : 26.5 kb/s

Count of elements           : 2874

Stream size                 : 24.0 MiB (0%)

Title                       : Thai

Language                    : Thai

Default                     : No

Forced                      : No



Text #37

ID                          : 39

Format                      : PGS

Codec ID                    : S_HDMV/PGS

Codec ID/Info               : Picture based subtitle format used on BDs/HD-DVDs

Duration                    : 2 h 8 min

Bit rate                    : 28.8 kb/s

Count of elements           : 2860

Stream size                 : 26.4 MiB (0%)

Title                       : Turkish

Language                    : Turkish

Default                     : No

Forced                      : No



Menu

00:00:00.000                : :Catching A Killer

00:06:51.161                : :Case Of Stagnation

00:11:34.819                : :Telling About Mary

00:15:46.279                : :Blow By Blow

00:19:13.486                : :Last Request

00:23:33.662                : :Bound Together

00:27:54.464                : :Miss Adler For Hire

00:32:05.841                : :The Irene I Know

00:37:13.106                : :Resurrection

00:40:54.994                : :Apt Prediction

00:44:41.804                : :Sorcery And Science

00:47:44.278                : :Meat Or Potatoes?

00:50:56.762                : :Giving Up The Ship

00:55:22.194                : :Friends In High Places

00:59:09.045                : :Blackwood's Lineage

01:03:09.369                : :Mutual Danger

01:06:12.635                : :Dead And Bath

01:11:18.774                : :Remake The World

01:14:43.938                : :On Purpose

01:17:40.906                : :Lambs To Slaughter

01:23:39.681                : :Trap For Three

01:26:11.541                : :The Best You Can Do

01:31:01.748                : :Next Target

01:35:19.964                : :Smoking Out A Coward

01:39:50.568                : :Countdown To Noon

01:44:25.342                : :Bell And Death Tolls

01:48:26.542                : :Cutting A Conjurer Loose

01:54:07.299                : :My Weak Spot

01:56:12.090                : :Moriarty's Mark

02:00:30.807                : :End Credits



Source Information

General

Unique ID                   : 178638831588479891684835691210975894558 (0x866496664FEBF25641CEB46281325C1E)

Complete name               : Sherlock.Holmes.2009.UHD.BluRay.2160p.DTS-HD.MA.5.1.HEVC.HYBRID.REMUX-FraMeSToR.mkv

Format                      : Matroska

Format version              : Version 4

File size                   : 53.7 GiB

Duration                    : 2 h 8 min

Overall bit rate mode       : Variable

Overall bit rate            : 59.8 Mb/s

Encoded date                : UTC 2020-08-30 15:29:36

Writing application         : mkvmerge v49.0.0 ('Sick Of Losing Soulmates') 64-bit

Writing library             : libebml v1.4.0 + libmatroska v1.6.1

IMDB                        : tt0988045

TMDB                        : movie/10528



Video

ID                          : 1

Format                      : HEVC

Format/Info                 : High Efficiency Video Coding

Format profile              : Main [email protected]@High

HDR format                  : SMPTE ST 2086, HDR10 compatible

Codec ID                    : V_MPEGH/ISO/HEVC

Duration                    : 2 h 8 min

Bit rate                    : 54.9 Mb/s

Width                       : 3 840 pixels

Height                      : 2 160 pixels

Display aspect ratio        : 16:9

Frame rate mode             : Constant

Frame rate                  : 23.976 (24000/1001) FPS

Color space                 : YUV

Chroma subsampling          : 4:2:0 (Type 2)

Bit depth                   : 10 bits

Bits/(Pixel*Frame)          : 0.276

Stream size                 : 49.3 GiB (92%)

Writing library             : ATEME Titan File 3.9.0 (4.9.0.0)        

Default                     : Yes

Forced                      : No

Color range                 : Limited

Color primaries             : BT.2020

Transfer characteristics    : PQ

Matrix coefficients         : BT.2020 non-constant

Mastering display color pri : Display P3

Mastering display luminance : min: 0.0050 cd/m2, max: 4000 cd/m2

Maximum Content Light Level : 343 cd/m2

Maximum Frame-Average Light : 106 cd/m2



Audio

ID                          : 2

Format                      : DTS XLL

Format/Info                 : Digital Theater Systems

Commercial name             : DTS-HD Master Audio

Codec ID                    : A_DTS

Duration                    : 2 h 8 min

Bit rate mode               : Variable

Bit rate                    : 3 979 kb/s

Channel(s)                  : 6 channels

Channel layout              : C L R Ls Rs LFE

Sampling rate               : 48.0 kHz

Frame rate                  : 93.750 FPS (512 SPF)

Bit depth                   : 24 bits

Compression mode            : Lossless

Stream size                 : 3.57 GiB (7%)

Language                    : English

Default                     : Yes

Forced                      : No



Text #1

ID                          : 3

Format                      : PGS

Codec ID                    : S_HDMV/PGS

Codec ID/Info               : Picture based subtitle format used on BDs/HD-DVDs

Duration                    : 2 h 0 min

Bit rate                    : 32.8 kb/s

Count of elements           : 3016

Stream size                 : 28.2 MiB (0%)

Title                       : English (SDH)

Language                    : English

Default                     : No

Forced                      : No



Text #2

ID                          : 4

Format                      : PGS

Codec ID                    : S_HDMV/PGS

Codec ID/Info               : Picture based subtitle format used on BDs/HD-DVDs

Duration                    : 2 h 6 min

Bit rate                    : 16.0 kb/s

Count of elements           : 2884

Stream size                 : 14.5 MiB (0%)

Title                       : Arabic

Language                    : Arabic

Default                     : No

Forced                      : No



Text #3

ID                          : 5

Format                      : PGS

Codec ID                    : S_HDMV/PGS

Codec ID/Info               : Picture based subtitle format used on BDs/HD-DVDs

Duration                    : 2 h 8 min

Bit rate                    : 28.0 kb/s

Count of elements           : 2820

Stream size                 : 25.7 MiB (0%)

Title                       : Bulgarian

Language                    : Bulgarian

Default                     : No

Forced                      : No



Text #4

ID                          : 6

Format                      : PGS

Codec ID                    : S_HDMV/PGS

Codec ID/Info               : Picture based subtitle format used on BDs/HD-DVDs

Duration                    : 2 h 6 min

Bit rate                    : 21.5 kb/s

Count of elements           : 2860

Stream size                 : 19.5 MiB (0%)

Title                       : Chinese (Cantonese)

Language                    : Chinese

Default                     : No

Forced                      : No



Text #5

ID                          : 7

Format                      : PGS

Codec ID                    : S_HDMV/PGS

Codec ID/Info               : Picture based subtitle format used on BDs/HD-DVDs

Duration                    : 1 h 58 min

Bit rate                    : 25.1 kb/s

Count of elements           : 2912

Stream size                 : 21.3 MiB (0%)

Title                       : Chinese (Mandarin Simplified)

Language                    : Chinese

Default                     : No

Forced                      : No



Text #6

ID                          : 8

Format                      : PGS

Codec ID                    : S_HDMV/PGS

Codec ID/Info               : Picture based subtitle format used on BDs/HD-DVDs

Duration                    : 2 h 6 min

Bit rate                    : 25.0 kb/s

Count of elements           : 2892

Stream size                 : 22.6 MiB (0%)

Title                       : Chinese (Mandarin Traditional)

Language                    : Chinese

Default                     : No

Forced                      : No



Text #7

ID                          : 9

Format                      : PGS

Codec ID                    : S_HDMV/PGS

Codec ID/Info               : Picture based subtitle format used on BDs/HD-DVDs

Duration                    : 2 h 8 min

Bit rate                    : 25.4 kb/s

Count of elements           : 2832

Stream size                 : 23.4 MiB (0%)

Title                       : Croatian

Language                    : Croatian

Default                     : No

Forced                      : No



Text #8

ID                          : 10

Format                      : PGS

Codec ID                    : S_HDMV/PGS

Codec ID/Info               : Picture based subtitle format used on BDs/HD-DVDs

Duration                    : 2 h 6 min

Bit rate                    : 25.1 kb/s

Count of elements           : 2834

Stream size                 : 22.8 MiB (0%)

Title                       : Czech

Language                    : Czech

Default                     : No

Forced                      : No



Text #9

ID                          : 11

Format                      : PGS

Codec ID                    : S_HDMV/PGS

Codec ID/Info               : Picture based subtitle format used on BDs/HD-DVDs

Duration                    : 2 h 6 min

Bit rate                    : 26.6 kb/s

Count of elements           : 2592

Stream size                 : 24.1 MiB (0%)

Title                       : Danish

Language                    : Danish

Default                     : No

Forced                      : No



Text #10

ID                          : 12

Format                      : PGS

Codec ID                    : S_HDMV/PGS

Codec ID/Info               : Picture based subtitle format used on BDs/HD-DVDs

Duration                    : 1 h 59 min

Bit rate                    : 25.5 kb/s

Count of elements           : 2232

Stream size                 : 21.8 MiB (0%)

Title                       : Dutch

Language                    : Dutch

Default                     : No

Forced                      : No



Text #11

ID                          : 13

Format                      : PGS

Codec ID                    : S_HDMV/PGS

Codec ID/Info               : Picture based subtitle format used on BDs/HD-DVDs

Duration                    : 2 h 8 min

Bit rate                    : 25.4 kb/s

Count of elements           : 2860

Stream size                 : 23.4 MiB (0%)

Title                       : Estonian

Language                    : Estonian

Default                     : No

Forced                      : No



Text #12

ID                          : 14

Format                      : PGS

Codec ID                    : S_HDMV/PGS

Codec ID/Info               : Picture based subtitle format used on BDs/HD-DVDs

Duration                    : 2 h 6 min

Bit rate                    : 28.5 kb/s

Count of elements           : 2664

Stream size                 : 25.8 MiB (0%)

Title                       : Finnish

Language                    : Finnish

Default                     : No

Forced                      : No



Text #13

ID                          : 15

Format                      : PGS

Codec ID                    : S_HDMV/PGS

Codec ID/Info               : Picture based subtitle format used on BDs/HD-DVDs

Duration                    : 2 h 6 min

Bit rate                    : 23.5 kb/s

Count of elements           : 2980

Stream size                 : 21.3 MiB (0%)

Title                       : French

Language                    : French

Default                     : No

Forced                      : No



Text #14

ID                          : 16

Format                      : PGS

Codec ID                    : S_HDMV/PGS

Codec ID/Info               : Picture based subtitle format used on BDs/HD-DVDs

Duration                    : 2 h 8 min

Bit rate                    : 30.3 kb/s

Count of elements           : 2882

Stream size                 : 27.8 MiB (0%)

Title                       : German

Language                    : German

Default                     : No

Forced                      : No



Text #15

ID                          : 17

Format                      : PGS

Codec ID                    : S_HDMV/PGS

Codec ID/Info               : Picture based subtitle format used on BDs/HD-DVDs

Duration                    : 2 h 0 min

Bit rate                    : 39.1 kb/s

Count of elements           : 3124

Stream size                 : 33.6 MiB (0%)

Title                       : German (SDH)

Language                    : German

Default                     : No

Forced                      : No



Text #16

ID                          : 18

Format                      : PGS

Codec ID                    : S_HDMV/PGS

Codec ID/Info               : Picture based subtitle format used on BDs/HD-DVDs

Duration                    : 2 h 8 min

Bit rate                    : 21.5 kb/s

Count of elements           : 2894

Stream size                 : 19.8 MiB (0%)

Title                       : Hebrew

Language                    : Hebrew

Default                     : No

Forced                      : No



Text #17

ID                          : 19

Format                      : PGS

Codec ID                    : S_HDMV/PGS

Codec ID/Info               : Picture based subtitle format used on BDs/HD-DVDs

Duration                    : 2 h 6 min

Bit rate                    : 24.2 kb/s

Count of elements           : 2688

Stream size                 : 22.0 MiB (0%)

Title                       : Hungarian

Language                    : Hungarian

Default                     : No

Forced                      : No



Text #18

ID                          : 20

Format                      : PGS

Codec ID                    : S_HDMV/PGS

Codec ID/Info               : Picture based subtitle format used on BDs/HD-DVDs

Duration                    : 2 h 8 min

Bit rate                    : 23.6 kb/s

Count of elements           : 2872

Stream size                 : 21.7 MiB (0%)

Title                       : Icelandic

Language                    : Icelandic

Default                     : No

Forced                      : No



Text #19

ID                          : 21

Format                      : PGS

Codec ID                    : S_HDMV/PGS

Codec ID/Info               : Picture based subtitle format used on BDs/HD-DVDs

Duration                    : 2 h 8 min

Bit rate                    : 25.2 kb/s

Count of elements           : 2546

Stream size                 : 23.1 MiB (0%)

Title                       : Italian

Language                    : Italian

Default                     : No

Forced                      : No



Text #20

ID                          : 22

Format                      : PGS

Codec ID                    : S_HDMV/PGS

Codec ID/Info               : Picture based subtitle format used on BDs/HD-DVDs

Duration                    : 2 h 8 min

Bit rate                    : 28.5 kb/s

Count of elements           : 2918

Stream size                 : 26.1 MiB (0%)

Title                       : Italian (SDH)

Language                    : Italian

Default                     : No

Forced                      : No



Text #21

ID                          : 23

Format                      : PGS

Codec ID                    : S_HDMV/PGS

Codec ID/Info               : Picture based subtitle format used on BDs/HD-DVDs

Duration                    : 1 h 59 min

Bit rate                    : 21.7 kb/s

Count of elements           : 2789

Stream size                 : 18.5 MiB (0%)

Title                       : Japanese

Language                    : Japanese

Default                     : No

Forced                      : No



Text #22

ID                          : 24

Format                      : PGS

Codec ID                    : S_HDMV/PGS

Codec ID/Info               : Picture based subtitle format used on BDs/HD-DVDs

Duration                    : 2 h 6 min

Bit rate                    : 17.4 kb/s

Count of elements           : 2810

Stream size                 : 15.7 MiB (0%)

Title                       : Korean

Language                    : Korean

Default                     : No

Forced                      : No



Text #23

ID                          : 25

Format                      : PGS

Codec ID                    : S_HDMV/PGS

Codec ID/Info               : Picture based subtitle format used on BDs/HD-DVDs

Duration                    : 2 h 8 min

Bit rate                    : 23.6 kb/s

Count of elements           : 2872

Stream size                 : 21.7 MiB (0%)

Title                       : Latvian

Language                    : Latvian

Default                     : No

Forced                      : No



Text #24

ID                          : 26

Format                      : PGS

Codec ID                    : S_HDMV/PGS

Codec ID/Info               : Picture based subtitle format used on BDs/HD-DVDs

Duration                    : 2 h 8 min

Bit rate                    : 28.7 kb/s

Count of elements           : 2944

Stream size                 : 26.4 MiB (0%)

Title                       : Lithuanian

Language                    : Lithuanian

Default                     : No

Forced                      : No



Text #25

ID                          : 27

Format                      : PGS

Codec ID                    : S_HDMV/PGS

Codec ID/Info               : Picture based subtitle format used on BDs/HD-DVDs

Duration                    : 1 h 59 min

Bit rate                    : 28.3 kb/s

Count of elements           : 2854

Stream size                 : 24.1 MiB (0%)

Title                       : Norwegian

Language                    : Norwegian

Default                     : No

Forced                      : No



Text #26

ID                          : 28

Format                      : PGS

Codec ID                    : S_HDMV/PGS

Codec ID/Info               : Picture based subtitle format used on BDs/HD-DVDs

Duration                    : 1 h 58 min

Bit rate                    : 25.8 kb/s

Count of elements           : 2166

Stream size                 : 21.9 MiB (0%)

Title                       : Polish

Language                    : Polish

Default                     : No

Forced                      : No



Text #27

ID                          : 29

Format                      : PGS

Codec ID                    : S_HDMV/PGS

Codec ID/Info               : Picture based subtitle format used on BDs/HD-DVDs

Duration                    : 2 h 8 min

Bit rate                    : 28.6 kb/s

Count of elements           : 2850

Stream size                 : 26.3 MiB (0%)

Title                       : Portuguese (Brazilian)

Language                    : Portuguese

Default                     : No

Forced                      : No



Text #28

ID                          : 30

Format                      : PGS

Codec ID                    : S_HDMV/PGS

Codec ID/Info               : Picture based subtitle format used on BDs/HD-DVDs

Duration                    : 2 h 8 min

Bit rate                    : 31.0 kb/s

Count of elements           : 2758

Stream size                 : 28.5 MiB (0%)

Title                       : Portuguese (Iberian)

Language                    : Portuguese

Default                     : No

Forced                      : No



Text #29

ID                          : 31

Format                      : PGS

Codec ID                    : S_HDMV/PGS

Codec ID/Info               : Picture based subtitle format used on BDs/HD-DVDs

Duration                    : 2 h 6 min

Bit rate                    : 29.7 kb/s

Count of elements           : 2900

Stream size                 : 26.9 MiB (0%)

Title                       : Romanian

Language                    : Romanian

Default                     : No

Forced                      : No



Text #30

ID                          : 32

Format                      : PGS

Codec ID                    : S_HDMV/PGS

Codec ID/Info               : Picture based subtitle format used on BDs/HD-DVDs

Duration                    : 2 h 8 min

Bit rate                    : 28.7 kb/s

Count of elements           : 2898

Stream size                 : 26.3 MiB (0%)

Title                       : Russian

Language                    : Russian

Default                     : No

Forced                      : No



Text #31

ID                          : 33

Format                      : PGS

Codec ID                    : S_HDMV/PGS

Codec ID/Info               : Picture based subtitle format used on BDs/HD-DVDs

Duration                    : 2 h 8 min

Bit rate                    : 25.9 kb/s

Count of elements           : 2808

Stream size                 : 23.8 MiB (0%)

Title                       : Serbian

Language                    : Serbian

Default                     : No

Forced                      : No



Text #32

ID                          : 34

Format                      : PGS

Codec ID                    : S_HDMV/PGS

Codec ID/Info               : Picture based subtitle format used on BDs/HD-DVDs

Duration                    : 2 h 8 min

Bit rate                    : 22.9 kb/s

Count of elements           : 2778

Stream size                 : 21.0 MiB (0%)

Title                       : Slovenian

Language                    : Slovenian

Default                     : No

Forced                      : No



Text #33

ID                          : 35

Format                      : PGS

Codec ID                    : S_HDMV/PGS

Codec ID/Info               : Picture based subtitle format used on BDs/HD-DVDs

Duration                    : 1 h 59 min

Bit rate                    : 30.1 kb/s

Count of elements           : 2844

Stream size                 : 25.7 MiB (0%)

Title                       : Spanish (Castilian)

Language                    : Spanish

Default                     : No

Forced                      : No



Text #34

ID                          : 36

Format                      : PGS

Codec ID                    : S_HDMV/PGS

Codec ID/Info               : Picture based subtitle format used on BDs/HD-DVDs

Duration                    : 2 h 6 min

Bit rate                    : 28.4 kb/s

Count of elements           : 2946

Stream size                 : 25.7 MiB (0%)

Title                       : Spanish (Latin American)

Language                    : Spanish

Default                     : No

Forced                      : No



Text #35

ID                          : 37

Format                      : PGS

Codec ID                    : S_HDMV/PGS

Codec ID/Info               : Picture based subtitle format used on BDs/HD-DVDs

Duration                    : 1 h 59 min

Bit rate                    : 30.6 kb/s

Count of elements           : 2762

Stream size                 : 26.1 MiB (0%)

Title                       : Swedish

Language                    : Swedish

Default                     : No

Forced                      : No



Text #36

ID                          : 38

Format                      : PGS

Codec ID                    : S_HDMV/PGS

Codec ID/Info               : Picture based subtitle format used on BDs/HD-DVDs

Duration                    : 2 h 6 min

Bit rate                    : 26.5 kb/s

Count of elements           : 2874

Stream size                 : 24.0 MiB (0%)

Title                       : Thai

Language                    : Thai

Default                     : No

Forced                      : No



Text #37

ID                          : 39

Format                      : PGS

Codec ID                    : S_HDMV/PGS

Codec ID/Info               : Picture based subtitle format used on BDs/HD-DVDs

Duration                    : 2 h 8 min

Bit rate                    : 28.8 kb/s

Count of elements           : 2860

Stream size                 : 26.4 MiB (0%)

Title                       : Turkish

Language                    : Turkish

Default                     : No

Forced                      : No



Menu

00:00:00.000                : en:Catching A Killer

00:06:51.161                : en:Case Of Stagnation

00:11:34.819                : en:Telling About Mary

00:15:46.279                : en:Blow By Blow

00:19:13.486                : en:Last Request

00:23:33.662                : en:Bound Together

00:27:54.464                : en:Miss Adler For Hire

00:32:05.841                : en:The Irene I Know

00:37:13.106                : en:Resurrection

00:40:54.994                : en:Apt Prediction

00:44:41.804                : en:Sorcery And Science

00:47:44.278                : en:Meat Or Potatoes?

00:50:56.762                : en:Giving Up The Ship

00:55:22.194                : en:Friends In High Places

00:59:09.045                : en:Blackwood's Lineage

01:03:09.369                : en:Mutual Danger

01:06:12.635                : en:Dead And Bath

01:11:18.774                : en:Remake The World

01:14:43.938                : en:On Purpose

01:17:40.906                : en:Lambs To Slaughter

01:23:39.681                : en:Trap For Three

01:26:11.541                : en:The Best You Can Do

01:31:01.748                : en:Next Target

01:35:19.964                : en:Smoking Out A Coward

01:39:50.568                : en:Countdown To Noon

01:44:25.342                : en:Bell And Death Tolls

01:48:26.542                : en:Cutting A Conjurer Loose

01:54:07.299                : en:My Weak Spot

01:56:12.090                : en:Moriarty's Mark

02:00:30.807                : en:End Credits



Similar Torrents

TORRENT NAMESIZESEEDSPEERS
1.5 GB18901257
152 MB18851247
1.3 GB321259
1.4 GB2659
1.5 GB26111
10 GB24574
1.4 GB22315
698 MB20310
3.3 GB183518
858 MB17831
9.6 GB150108
1.6 GB14921
5.4 GB1479
8.4 GB1278
5.5 GB1117

Torrent Trackers

Files inside this torrent

FILENAMESIZE
icon Sherlock Holmes (2009) (2160p HDR BDRip x265 10bit EAC3 5.1 - r0b0t) [TAoE].mkv18.4 GB