Warning! Do NOT Download Without a VPN!
Your IP Address is .   Location is
Your Internet Provider and Government can track your download activities! Hide your IP ADDRESS with a VPN!
We strongly recommend using a VPN service to anonymize your torrent downloads. It's FREE!
START YOUR FREE TRIAL NOW!

Torrent Details

Photo Not Available
Sherlock Holmes: A Game of Shadows
Sherlock Holmes A Game of Shadows (2011) (1080p BDRip x265 10bit AC3 5.1 - r0b0t) [TAoE]
Size7.4 GB in 1 file
ReleasesAdded on 09/13/20 at 3:22pm into the Movies category by Unknown.
MPAA Rating[PG-13] - Parents Strongly Cautioned
Status0 seeds & 0 peers.
Hashe2adb007819d6a49b451915a9f9d7e50e0f38d44
GenreAction, Adventure, Crime, Mystery, Thriller
PeopleDirector: Guy Ritchie
Writers: Michele Mulroney, Kieran Mulroney, Arthur Conan Doyle (characters)
Actors: Robert Downey Jr., Jude Law, Noomi Rapace, Rachel McAdams
Made inThis movie was made in USA, UK and the original languages of this movie are English, French, Italian, German, Romany.
Rating
  • YourBT Visitors

  • Critics

  • IMDB (404834 votes)

  • Metacritic Score

Status This torrent has been verified.
*

Torrent Description









Sherlock Holmes: A Game of Shadows (2011) IMDB





















Source

Sherlock Holmes- A Game of Shadows (2011) 1080p BluRay REMUX AVC DTS-HDMA 5.1 - KRaLiMaRKo



Media Information

General

Unique ID                   : 329824011043772643364613608001907561543 (0xF821CB3EA65C6B7CB2D16C4F73199447)

Complete name               : Sherlock Holmes A Game of Shadows (2011) (1080p BDRip x265 10bit AC3 5.1 - r0b0t) [TAoE].mkv

Format                      : Matroska

Format version              : Version 4

File size                   : 7.39 GiB

Duration                    : 2 h 8 min

Overall bit rate            : 8 223 kb/s

Writing application         : Lavf58.29.100

Writing library             : Lavf58.29.100

ErrorDetectionType          : Per level 1



Video

ID                          : 1

Format                      : HEVC

Format/Info                 : High Efficiency Video Coding

Format profile              : Main [email protected]@Main

Codec ID                    : V_MPEGH/ISO/HEVC

Duration                    : 2 h 8 min

Bit rate                    : 7 225 kb/s

Width                       : 1 920 pixels

Height                      : 800 pixels

Display aspect ratio        : 2.40:1

Frame rate mode             : Variable

Frame rate                  : 23.976 FPS

Color space                 : YUV

Chroma subsampling          : 4:2:0

Bit depth                   : 10 bits

Bits/(Pixel*Frame)          : 0.196

Stream size                 : 6.50 GiB (88%)

Title                       : Encoded by r0b0t for TAoE using Shinguru V2.1

Writing library             : x265 3.3+29-1e3dbf09ee4f:[Windows][GCC 9.3.1][64 bit] 10bit

Encoding settings           : cpuid=1111039 / frame-threads=4 / numa-pools=16 / wpp / no-pmode / no-pme / no-psnr / no-ssim / log-level=2 / input-csp=1 / input-res=1920x800 / interlace=0 / total-frames=0 / level-idc=0 / high-tier=1 / uhd-bd=0 / ref=4 / no-allow-non-conformance / no-repeat-headers / annexb / no-aud / no-hrd / info / hash=0 / no-temporal-layers / open-gop / min-keyint=23 / keyint=250 / gop-lookahead=0 / bframes=8 / b-adapt=2 / b-pyramid / bframe-bias=0 / rc-lookahead=80 / lookahead-slices=4 / scenecut=40 / hist-scenecut=0 / radl=0 / no-splice / no-intra-refresh / ctu=64 / min-cu-size=8 / no-rect / no-amp / max-tu-size=32 / tu-inter-depth=1 / tu-intra-depth=1 / limit-tu=0 / rdoq-level=2 / dynamic-rd=0.00 / no-ssim-rd / signhide / no-tskip / nr-intra=0 / nr-inter=0 / no-constrained-intra / no-strong-intra-smoothing / max-merge=3 / limit-refs=3 / limit-modes / me=3 / subme=5 / merange=57 / temporal-mvp / no-frame-dup / no-hme / weightp / no-weightb / no-analyze-src-pics / deblock=0:0 / sao / no-sao-non-deblock / rd=4 / selective-sao=4 / no-early-skip / rskip / no-fast-intra / no-tskip-fast / no-cu-lossless / no-b-intra / no-splitrd-skip / rdpenalty=0 / psy-rd=1.30 / psy-rdoq=2.00 / no-rd-refine / no-lossless / cbqpoffs=0 / crqpoffs=0 / rc=crf / crf=18.0 / qcomp=0.60 / qpstep=4 / stats-write=0 / stats-read=0 / ipratio=1.40 / pbratio=1.30 / aq-mode=4 / aq-strength=1.10 / cutree / zone-count=0 / no-strict-cbr / qg-size=32 / no-rc-grain / qpmax=69 / qpmin=0 / no-const-vbv / sar=1 / overscan=0 / videoformat=5 / range=0 / colorprim=2 / transfer=2 / colormatrix=2 / chromaloc=0 / display-window=0 / cll=0,0 / min-luma=0 / max-luma=1023 / log2-max-poc-lsb=8 / vui-timing-info / vui-hrd-info / slices=1 / no-opt-qp-pps / no-opt-ref-list-length-pps / no-multi-pass-opt-rps / scenecut-bias=0.05 / hist-threshold=0.01 / no-opt-cu-delta-qp / no-aq-motion / no-hdr10 / no-hdr10-opt / no-dhdr10-opt / no-idr-recovery-sei / analysis-reuse-level=0 / analysis-save-reuse-level=0 / analysis-load-reuse-level=0 / scale-factor=0 / refine-intra=0 / refine-inter=0 / refine-mv=1 / refine-ctu-distortion=0 / no-limit-sao / ctu-info=0 / no-lowpass-dct / refine-analysis-type=0 / copy-pic=1 / max-ausize-factor=1.0 / no-dynamic-refine / no-single-sei / no-hevc-aq / no-svt / no-field / qp-adaptation-range=1.00 / no-scenecut-aware-qpconformance-window-offsets / right=0 / bottom=0 / decoder-max-rate=0

Language                    : English

Default                     : Yes

Forced                      : No

Color range                 : Limited



Audio

ID                          : 2

Format                      : AC-3

Format/Info                 : Audio Coding 3

Commercial name             : Dolby Digital

Codec ID                    : A_AC3

Duration                    : 2 h 8 min

Bit rate mode               : Constant

Bit rate                    : 640 kb/s

Channel(s)                  : 6 channels

Channel layout              : L R C LFE Ls Rs

Sampling rate               : 48.0 kHz

Frame rate                  : 31.250 FPS (1536 SPF)

Bit depth                   : 24 bits

Compression mode            : Lossy

Stream size                 : 589 MiB (8%)

Writing library             : Lavc58.54.100 ac3

Language                    : English

Service kind                : Complete Main

Default                     : Yes

Forced                      : No



Text #1

ID                          : 3

Format                      : PGS

Codec ID                    : S_HDMV/PGS

Codec ID/Info               : Picture based subtitle format used on BDs/HD-DVDs

Duration                    : 2 h 8 min

Bit rate                    : 28.7 kb/s

Count of elements           : 2900

Stream size                 : 26.3 MiB (0%)

Title                       : SDH

Language                    : English

Default                     : Yes

Forced                      : No



Text #2

ID                          : 4

Format                      : PGS

Codec ID                    : S_HDMV/PGS

Codec ID/Info               : Picture based subtitle format used on BDs/HD-DVDs

Duration                    : 2 h 8 min

Bit rate                    : 22.9 kb/s

Count of elements           : 1934

Stream size                 : 21.0 MiB (0%)

Language                    : Danish

Default                     : No

Forced                      : No



Text #3

ID                          : 5

Format                      : PGS

Codec ID                    : S_HDMV/PGS

Codec ID/Info               : Picture based subtitle format used on BDs/HD-DVDs

Duration                    : 2 h 8 min

Bit rate                    : 21.5 kb/s

Count of elements           : 2090

Stream size                 : 19.7 MiB (0%)

Language                    : Dutch

Default                     : No

Forced                      : No



Text #4

ID                          : 6

Format                      : PGS

Codec ID                    : S_HDMV/PGS

Codec ID/Info               : Picture based subtitle format used on BDs/HD-DVDs

Duration                    : 2 h 8 min

Bit rate                    : 20.6 kb/s

Count of elements           : 2056

Stream size                 : 18.9 MiB (0%)

Language                    : Finnish

Default                     : No

Forced                      : No



Text #5

ID                          : 7

Format                      : PGS

Codec ID                    : S_HDMV/PGS

Codec ID/Info               : Picture based subtitle format used on BDs/HD-DVDs

Duration                    : 2 h 8 min

Bit rate                    : 23.7 kb/s

Count of elements           : 2352

Stream size                 : 21.7 MiB (0%)

Language                    : French

Default                     : No

Forced                      : No



Text #6

ID                          : 8

Format                      : PGS

Codec ID                    : S_HDMV/PGS

Codec ID/Info               : Picture based subtitle format used on BDs/HD-DVDs

Duration                    : 2 h 8 min

Bit rate                    : 34.1 kb/s

Count of elements           : 2998

Stream size                 : 31.3 MiB (0%)

Title                       : SDH

Language                    : German

Default                     : No

Forced                      : No



Text #7

ID                          : 9

Format                      : PGS

Codec ID                    : S_HDMV/PGS

Codec ID/Info               : Picture based subtitle format used on BDs/HD-DVDs

Duration                    : 2 h 8 min

Bit rate                    : 22.8 kb/s

Count of elements           : 2522

Stream size                 : 20.9 MiB (0%)

Language                    : Icelandic

Default                     : No

Forced                      : No



Text #8

ID                          : 10

Format                      : PGS

Codec ID                    : S_HDMV/PGS

Codec ID/Info               : Picture based subtitle format used on BDs/HD-DVDs

Duration                    : 2 h 8 min

Bit rate                    : 28.9 kb/s

Count of elements           : 2976

Stream size                 : 26.5 MiB (0%)

Title                       : SDH

Language                    : Italian

Default                     : No

Forced                      : No



Text #9

ID                          : 11

Format                      : PGS

Codec ID                    : S_HDMV/PGS

Codec ID/Info               : Picture based subtitle format used on BDs/HD-DVDs

Duration                    : 2 h 0 min

Bit rate                    : 19.2 kb/s

Count of elements           : 2552

Stream size                 : 16.5 MiB (0%)

Language                    : Japanese

Default                     : No

Forced                      : No



Text #10

ID                          : 12

Format                      : PGS

Codec ID                    : S_HDMV/PGS

Codec ID/Info               : Picture based subtitle format used on BDs/HD-DVDs

Duration                    : 2 h 8 min

Bit rate                    : 21.9 kb/s

Count of elements           : 1944

Stream size                 : 20.1 MiB (0%)

Language                    : Norwegian

Default                     : No

Forced                      : No



Text #11

ID                          : 13

Format                      : PGS

Codec ID                    : S_HDMV/PGS

Codec ID/Info               : Picture based subtitle format used on BDs/HD-DVDs

Duration                    : 2 h 8 min

Bit rate                    : 20.3 kb/s

Count of elements           : 2340

Stream size                 : 18.6 MiB (0%)

Language                    : Polish

Default                     : No

Forced                      : No



Text #12

ID                          : 14

Format                      : PGS

Codec ID                    : S_HDMV/PGS

Codec ID/Info               : Picture based subtitle format used on BDs/HD-DVDs

Duration                    : 2 h 8 min

Bit rate                    : 23.6 kb/s

Count of elements           : 2420

Stream size                 : 21.7 MiB (0%)

Language                    : Portuguese

Default                     : No

Forced                      : No



Text #13

ID                          : 15

Format                      : PGS

Codec ID                    : S_HDMV/PGS

Codec ID/Info               : Picture based subtitle format used on BDs/HD-DVDs

Duration                    : 2 h 8 min

Bit rate                    : 23.2 kb/s

Count of elements           : 2502

Stream size                 : 21.2 MiB (0%)

Title                       : Castilian

Language                    : Spanish

Default                     : No

Forced                      : No



Text #14

ID                          : 16

Format                      : PGS

Codec ID                    : S_HDMV/PGS

Codec ID/Info               : Picture based subtitle format used on BDs/HD-DVDs

Duration                    : 2 h 8 min

Bit rate                    : 22.3 kb/s

Count of elements           : 2010

Stream size                 : 20.5 MiB (0%)

Language                    : Swedish

Default                     : No

Forced                      : No



Text #15

ID                          : 17

Format                      : PGS

Codec ID                    : S_HDMV/PGS

Codec ID/Info               : Picture based subtitle format used on BDs/HD-DVDs

Duration                    : 2 h 8 min

Bit rate                    : 22.8 kb/s

Count of elements           : 2472

Stream size                 : 20.9 MiB (0%)

Language                    : Turkish

Default                     : No

Forced                      : No



Menu

00:00:00.000                : :00:00:00.000

00:09:18.266                : :00:09:18.266

00:19:37.635                : :00:19:37.635

00:30:46.845                : :00:30:46.845

00:40:13.703                : :00:40:13.703

00:50:29.026                : :00:50:29.026

00:59:45.457                : :00:59:45.457

01:09:20.823                : :01:09:20.823

01:18:58.275                : :01:18:58.275

01:30:08.695                : :01:30:08.695

01:39:08.734                : :01:39:08.734

01:49:50.375                : :01:49:50.375

02:00:24.717                : :02:00:24.717



Source Information

General

Unique ID                   : 180817931683217053981044283350692888902 (0x8808445448F6FE40B288E0DDC5D78146)

Complete name               : Sherlock Holmes- A Game of Shadows (2011) 1080p BluRay REMUX AVC DTS-HDMA 5.1 - KRaLiMaRKo.mkv

Format                      : Matroska

Format version              : Version 2

File size                   : 20.6 GiB

Duration                    : 2 h 8 min

Overall bit rate mode       : Variable

Overall bit rate            : 23.0 Mb/s

Encoded date                : UTC 2012-04-17 22:04:24

Writing application         : mkvmerge v5.5.0 ('Healer') built on Apr  6 2012 21:43:24

Writing library             : libebml v1.2.3 + libmatroska v1.3.0



Video

ID                          : 1

Format                      : AVC

Format/Info                 : Advanced Video Codec

Format profile              : [email protected]

Format settings             : CABAC / 2 Ref Frames

Format settings, CABAC      : Yes

Format settings, Reference  : 2 frames

Format settings, GOP        : M=1, N=10

Codec ID                    : V_MPEG4/ISO/AVC

Duration                    : 2 h 8 min

Bit rate mode               : Variable

Width                       : 1 920 pixels

Height                      : 1 080 pixels

Display aspect ratio        : 16:9

Frame rate mode             : Constant

Frame rate                  : 23.976 (24000/1001) FPS

Color space                 : YUV

Chroma subsampling          : 4:2:0

Bit depth                   : 8 bits

Scan type                   : Progressive

Language                    : English

Default                     : Yes

Forced                      : No

Duration_Source             : General_Duration



Audio

ID                          : 2

Format                      : DTS XLL

Format/Info                 : Digital Theater Systems

Commercial name             : DTS-HD Master Audio

Codec ID                    : A_DTS

Duration                    : 2 h 8 min

Bit rate mode               : Variable

Channel(s)                  : 6 channels

Channel layout              : C L R Ls Rs LFE

Sampling rate               : 48.0 kHz

Frame rate                  : 93.750 FPS (512 SPF)

Bit depth                   : 24 bits

Compression mode            : Lossless

Language                    : English

Default                     : Yes

Forced                      : No

Duration_Source             : General_Duration



Text #1

ID                          : 3

Format                      : PGS

Codec ID                    : S_HDMV/PGS

Codec ID/Info               : Picture based subtitle format used on BDs/HD-DVDs

Title                       : SDH

Language                    : English

Default                     : Yes

Forced                      : No



Text #2

ID                          : 4

Format                      : PGS

Codec ID                    : S_HDMV/PGS

Codec ID/Info               : Picture based subtitle format used on BDs/HD-DVDs

Language                    : Danish

Default                     : No

Forced                      : No



Text #3

ID                          : 5

Format                      : PGS

Codec ID                    : S_HDMV/PGS

Codec ID/Info               : Picture based subtitle format used on BDs/HD-DVDs

Language                    : Dutch

Default                     : No

Forced                      : No



Text #4

ID                          : 6

Format                      : PGS

Codec ID                    : S_HDMV/PGS

Codec ID/Info               : Picture based subtitle format used on BDs/HD-DVDs

Language                    : Finnish

Default                     : No

Forced                      : No



Text #5

ID                          : 7

Format                      : PGS

Codec ID                    : S_HDMV/PGS

Codec ID/Info               : Picture based subtitle format used on BDs/HD-DVDs

Language                    : French

Default                     : No

Forced                      : No



Text #6

ID                          : 8

Format                      : PGS

Codec ID                    : S_HDMV/PGS

Codec ID/Info               : Picture based subtitle format used on BDs/HD-DVDs

Title                       : SDH

Language                    : German

Default                     : No

Forced                      : No



Text #7

ID                          : 9

Format                      : PGS

Codec ID                    : S_HDMV/PGS

Codec ID/Info               : Picture based subtitle format used on BDs/HD-DVDs

Language                    : Icelandic

Default                     : No

Forced                      : No



Text #8

ID                          : 10

Format                      : PGS

Codec ID                    : S_HDMV/PGS

Codec ID/Info               : Picture based subtitle format used on BDs/HD-DVDs

Title                       : SDH

Language                    : Italian

Default                     : No

Forced                      : No



Text #9

ID                          : 11

Format                      : PGS

Codec ID                    : S_HDMV/PGS

Codec ID/Info               : Picture based subtitle format used on BDs/HD-DVDs

Language                    : Japanese

Default                     : No

Forced                      : No



Text #10

ID                          : 12

Format                      : PGS

Codec ID                    : S_HDMV/PGS

Codec ID/Info               : Picture based subtitle format used on BDs/HD-DVDs

Language                    : Norwegian

Default                     : No

Forced                      : No



Text #11

ID                          : 13

Format                      : PGS

Codec ID                    : S_HDMV/PGS

Codec ID/Info               : Picture based subtitle format used on BDs/HD-DVDs

Language                    : Polish

Default                     : No

Forced                      : No



Text #12

ID                          : 14

Format                      : PGS

Codec ID                    : S_HDMV/PGS

Codec ID/Info               : Picture based subtitle format used on BDs/HD-DVDs

Language                    : Portuguese

Default                     : No

Forced                      : No



Text #13

ID                          : 15

Format                      : PGS

Codec ID                    : S_HDMV/PGS

Codec ID/Info               : Picture based subtitle format used on BDs/HD-DVDs

Title                       : Castilian

Language                    : Spanish

Default                     : No

Forced                      : No



Text #14

ID                          : 16

Format                      : PGS

Codec ID                    : S_HDMV/PGS

Codec ID/Info               : Picture based subtitle format used on BDs/HD-DVDs

Language                    : Swedish

Default                     : No

Forced                      : No



Text #15

ID                          : 17

Format                      : PGS

Codec ID                    : S_HDMV/PGS

Codec ID/Info               : Picture based subtitle format used on BDs/HD-DVDs

Language                    : Turkish

Default                     : No

Forced                      : No



Menu

00:00:00.000                : en:00:00:00.000

00:09:18.266                : en:00:09:18.266

00:19:37.635                : en:00:19:37.635

00:30:46.845                : en:00:30:46.845

00:40:13.703                : en:00:40:13.703

00:50:29.026                : en:00:50:29.026

00:59:45.457                : en:00:59:45.457

01:09:20.823                : en:01:09:20.823

01:18:58.275                : en:01:18:58.275

01:30:08.695                : en:01:30:08.695

01:39:08.734                : en:01:39:08.734

01:49:50.375                : en:01:49:50.375

02:00:24.717                : en:02:00:24.717



Similar Torrents

TORRENT NAMESIZESEEDSPEERS
1.1 GB21771451
1.5 GB18901257
152 MB18851247
3.8 GB119182
1.2 GB962174
2.4 GB847141
1.9 GB793164
797 MB79397
2.9 GB785669
253 MB54098
1.6 GB53071
1.2 GB522508
796 MB482117
1.1 GB459342
803 MB41476

Torrent Trackers

Files inside this torrent

FILENAMESIZE
icon Sherlock Holmes A Game of Shadows (2011) (1080p BDRip x265 10bit AC3 5.1 - r0b0t) [TAoE].mkv7.4 GB