Warning! Do NOT Download Without a VPN!
Your IP Address is .   Location is
Your Internet Provider and Government can track your download activities! Hide your IP ADDRESS with a VPN!
We strongly recommend using a VPN service to anonymize your torrent downloads. It's FREE!
START YOUR FREE TRIAL NOW!

Torrent Details

Photo Not Available
Raised by Wolves
Raised by Wolves (2020) S01E07 Faces (1080p HMAX Webrip x265 10bit AC3 5.1 - Goki)[TAoE]
Size900 MB in 1 file
ReleasesAdded on 09/17/20 at 3:12pm into the Television category by Unknown.
MPAA RatingUnknown Rating: N/A
Status0 seeds & 0 peers.
Hash92360f5fb26fb9f42bf3f547efd48b344fb2b5db
GenreDrama, Fantasy, Sci-Fi, Thriller
PeopleDirector: N/A
Writer: Aaron Guzikowski
Actors: Travis Fimmel, Winta McGrath, Jordan Loughran, Ethan Hazzard
Made inThis movie was made in USA and the original language of this movie is English.
Rating
  • YourBT Visitors

  • Critics

  • IMDB (6044 votes)

Status This torrent has been verified.
*

Torrent Description











Raised by Wolves (2020)

IMDB  Trakt.tv  TVmaze





















Encode Media Information



General

Unique ID                                : 283944017080244499874457469779957854249 (0xD59DA0E58943FF81DD467A05F3253029)

Complete name                            : Raised by Wolves (2020) S01E07 Faces (1080p HMAX Webrip x265 10bit AC3 5.1 - Goki)[TAoE].mkv

Format                                   : Matroska

Format version                           : Version 4

File size                                : 900 MiB

Duration                                 : 48 min 54 s

Overall bit rate                         : 2 573 kb/s

Writing application                      : Lavf58.29.100

Writing library                          : Lavf58.29.100

ErrorDetectionType                       : Per level 1



Video

ID                                       : 1

Format                                   : HEVC

Format/Info                              : High Efficiency Video Coding

Format profile                           : Main [email protected]@Main

Codec ID                                 : V_MPEGH/ISO/HEVC

Duration                                 : 48 min 54 s

Bit rate                                 : 2 185 kb/s

Width                                    : 1 920 pixels

Height                                   : 1 080 pixels

Display aspect ratio                     : 16:9

Frame rate mode                          : Constant

Frame rate                               : 23.976 (24000/1001) FPS

Color space                              : YUV

Chroma subsampling                       : 4:2:0

Bit depth                                : 10 bits

Bits/(Pixel*Frame)                       : 0.044

Stream size                              : 764 MiB (85%)

Title                                    : Encoded by Goki for TAoE using Shinguru V2.4

Writing library                          : x265 3.3+29-1e3dbf09ee4f:[Windows][GCC 9.3.1][64 bit] 10bit

Encoding settings                        : cpuid=1111039 / frame-threads=4 / numa-pools=24 / wpp / no-pmode / no-pme / no-psnr / no-ssim / log-level=2 / input-csp=1 / input-res=1920x1080 / interlace=0 / total-frames=0 / level-idc=0 / high-tier=1 / uhd-bd=0 / ref=4 / no-allow-non-conformance / no-repeat-headers / annexb / no-aud / no-hrd / info / hash=0 / no-temporal-layers / open-gop / min-keyint=23 / keyint=250 / gop-lookahead=0 / bframes=8 / b-adapt=2 / b-pyramid / bframe-bias=0 / rc-lookahead=80 / lookahead-slices=4 / scenecut=40 / hist-scenecut=0 / radl=0 / no-splice / no-intra-refresh / ctu=64 / min-cu-size=8 / no-rect / no-amp / max-tu-size=32 / tu-inter-depth=1 / tu-intra-depth=1 / limit-tu=0 / rdoq-level=2 / dynamic-rd=0.00 / no-ssim-rd / signhide / no-tskip / nr-intra=0 / nr-inter=0 / no-constrained-intra / no-strong-intra-smoothing / max-merge=3 / limit-refs=3 / limit-modes / me=3 / subme=5 / merange=57 / temporal-mvp / no-frame-dup / no-hme / weightp / no-weightb / no-analyze-src-pics / deblock=0:0 / sao / no-sao-non-deblock / rd=4 / selective-sao=4 / no-early-skip / rskip / no-fast-intra / no-tskip-fast / no-cu-lossless / no-b-intra / no-splitrd-skip / rdpenalty=0 / psy-rd=1.30 / psy-rdoq=2.00 / no-rd-refine / no-lossless / cbqpoffs=0 / crqpoffs=0 / rc=crf / crf=19.5 / qcomp=0.60 / qpstep=4 / stats-write=0 / stats-read=0 / ipratio=1.40 / pbratio=1.30 / aq-mode=4 / aq-strength=1.10 / cutree / zone-count=0 / no-strict-cbr / qg-size=32 / no-rc-grain / qpmax=69 / qpmin=0 / no-const-vbv / sar=1 / overscan=0 / videoformat=5 / range=0 / colorprim=2 / transfer=2 / colormatrix=2 / chromaloc=0 / display-window=0 / cll=0,0 / min-luma=0 / max-luma=1023 / log2-max-poc-lsb=8 / vui-timing-info / vui-hrd-info / slices=1 / no-opt-qp-pps / no-opt-ref-list-length-pps / no-multi-pass-opt-rps / scenecut-bias=0.05 / hist-threshold=0.01 / no-opt-cu-delta-qp / no-aq-motion / no-hdr10 / no-hdr10-opt / no-dhdr10-opt / no-idr-recovery-sei / analysis-reuse-level=0 / analysis-save-reuse-level=0 / analysis-load-reuse-level=0 / scale-factor=0 / refine-intra=0 / refine-inter=0 / refine-mv=1 / refine-ctu-distortion=0 / no-limit-sao / ctu-info=0 / no-lowpass-dct / refine-analysis-type=0 / copy-pic=1 / max-ausize-factor=1.0 / no-dynamic-refine / no-single-sei / no-hevc-aq / no-svt / no-field / qp-adaptation-range=1.00 / no-scenecut-aware-qpconformance-window-offsets / right=0 / bottom=0 / decoder-max-rate=0

Default                                  : Yes

Forced                                   : No

Color range                              : Limited



Audio

ID                                       : 2

Format                                   : AC-3

Format/Info                              : Audio Coding 3

Commercial name                          : Dolby Digital

Codec ID                                 : A_AC3

Duration                                 : 48 min 54 s

Bit rate mode                            : Constant

Bit rate                                 : 384 kb/s

Channel(s)                               : 6 channels

Channel layout                           : L R C LFE Ls Rs

Sampling rate                            : 48.0 kHz

Frame rate                               : 31.250 FPS (1536 SPF)

Bit depth                                : 32 bits

Compression mode                         : Lossy

Stream size                              : 134 MiB (15%)

Language                                 : English

Service kind                             : Complete Main

Default                                  : Yes

Forced                                   : No



Text

ID                                       : 3

Format                                   : UTF-8

Codec ID                                 : S_TEXT/UTF8

Codec ID/Info                            : UTF-8 Plain Text

Duration                                 : 48 min 52 s

Bit rate                                 : 43 b/s

Count of elements                        : 1087

Stream size                              : 15.6 KiB (0%)

Language                                 : English

Default                                  : No

Forced                                   : No



Source Media Information



General

Unique ID                                : 202280440078399280899722668135823956403 (0x982DCBB1199A539C49B791422873D9B3)

Complete name                            : raised.by.wolves.2020.s01e07.1080p.web.h264-videohole.mkv

Format                                   : Matroska

Format version                           : Version 4

File size                                : 2.94 GiB

Duration                                 : 48 min 54 s

Overall bit rate mode                    : Variable

Overall bit rate                         : 8 599 kb/s

Writing application                      : mkvmerge v49.0.0 ('Sick Of Losing Soulmates') 64-bit

Writing library                          : libebml v1.4.0 + libmatroska v1.6.1



Video

ID                                       : 1

Format                                   : AVC

Format/Info                              : Advanced Video Codec

Format profile                           : [email protected]

Format settings                          : CABAC / 4 Ref Frames

Format settings, CABAC                   : Yes

Format settings, Reference frames        : 4 frames

Codec ID                                 : V_MPEG4/ISO/AVC

Duration                                 : 48 min 54 s

Bit rate mode                            : Variable

Bit rate                                 : 8 044 kb/s

Maximum bit rate                         : 12.4 Mb/s

Width                                    : 1 920 pixels

Height                                   : 1 080 pixels

Display aspect ratio                     : 16:9

Frame rate mode                          : Constant

Frame rate                               : 23.976 (24000/1001) FPS

Color space                              : YUV

Chroma subsampling                       : 4:2:0

Bit depth                                : 8 bits

Scan type                                : Progressive

Bits/(Pixel*Frame)                       : 0.162

Stream size                              : 2.75 GiB (94%)

Default                                  : Yes

Forced                                   : No

Color range                              : Limited

Color primaries                          : BT.709

Transfer characteristics                 : BT.709

Matrix coefficients                      : BT.709

Duration_Source                          : General_Duration



Audio

ID                                       : 2

Format                                   : AC-3

Format/Info                              : Audio Coding 3

Commercial name                          : Dolby Digital

Codec ID                                 : A_AC3

Duration                                 : 48 min 54 s

Bit rate mode                            : Constant

Bit rate                                 : 384 kb/s

Channel(s)                               : 6 channels

Channel layout                           : L R C LFE Ls Rs

Sampling rate                            : 48.0 kHz

Frame rate                               : 31.250 FPS (1536 SPF)

Compression mode                         : Lossy

Stream size                              : 134 MiB (4%)

Language                                 : English

Service kind                             : Complete Main

Default                                  : Yes

Forced                                   : No

Duration_Source                          : General_Duration



Text

ID                                       : 3

Format                                   : UTF-8

Codec ID                                 : S_TEXT/UTF8

Codec ID/Info                            : UTF-8 Plain Text

Language                                 : English

Default                                  : No

Forced                                   : No



Similar Torrents

TORRENT NAMESIZESEEDSPEERS
13.3 GB2301226
1.5 GB18901257
152 MB18851247
44.7 GB777314
4.5 GB67723
56 MB6517
1.5 GB50311
85.9 GB372385
16.4 GB36092
25 GB35873
1.3 GB321259
11.9 GB29475
2.9 GB28122
616 MB2795
3.6 GB22512

Torrent Trackers

Files inside this torrent

FILENAMESIZE
icon Raised by Wolves (2020) S01E07 Faces (1080p HMAX Webrip x265 10bit AC3 5.1 - Goki)[TAoE].mkv899.8 MB